<?xml version="1.0" standalone="no"?>
<!DOCTYPE svg PUBLIC "-//W3C//DTD SVG 1.1//EN" "http://www.w3.org/Graphics/SVG/1.1/DTD/svg11.dtd" >
<svg xmlns="http://www.w3.org/2000/svg">
<metadata>Generated by IcoMoon</metadata>
<defs>
<font id="supervalu" horiz-adv-x="1024">
<font-face units-per-em="1024" ascent="960" descent="-64" />
<missing-glyph horiz-adv-x="1024" />
<glyph unicode="&#x20;" horiz-adv-x="512" d="" />
<glyph unicode="&#xe900;" glyph-name="icon-aisles" d="M418.816 938.667h-372.309c-12.331 0-24.064-5.12-32.768-13.653-8.704-8.96-13.611-20.48-13.739-32.853v-372.48c0.128-12.373 5.035-23.893 13.739-32.853 8.704-8.533 20.437-13.653 32.768-13.653h372.309c12.288 0 24.021 5.12 32.725 13.653 8.704 8.96 13.653 20.48 13.739 32.853v372.48c0.853 5.12 0.512 10.667-0.981 15.36-1.451 5.12-4.053 9.813-7.552 13.653-4.693 5.547-10.496 9.813-17.067 12.8-6.528 2.987-13.653 4.693-20.864 4.693zM404.736 875.094v-341.333h-341.205v341.333h341.205zM604.757 473.174h372.309c12.288 0 24.064 5.12 32.725 13.653 8.704 8.96 13.653 20.48 13.739 32.853v372.48c0.853 5.12 0.512 10.667-0.939 15.36-1.493 5.12-4.053 9.813-7.552 13.653-4.693 5.547-10.539 9.813-17.067 12.8-6.571 2.987-13.696 4.693-20.907 4.693h-372.309c-12.288 0-24.064-5.12-32.768-13.653-8.704-8.96-13.611-20.48-13.739-32.853v-372.48c0.213-12.373 5.205-23.893 13.867-32.853 8.661-8.533 20.352-13.227 32.64-13.653zM623.531 532.054v341.333h341.163v-341.333h-341.163zM418.816 380.16h-372.309c-12.331 0-24.064-5.12-32.768-13.653-8.704-8.96-13.611-20.48-13.739-32.853v-372.48c0.128-12.373 5.035-23.893 13.739-32.853 8.704-8.533 20.437-13.653 32.768-13.653h372.309c12.288 0 24.021 5.12 32.725 13.653 8.704 8.96 13.653 20.48 13.739 32.853v372.48c0.853 5.12 0.512 10.667-0.981 15.36-1.451 5.12-4.053 9.813-7.552 13.653-4.693 5.547-10.496 9.813-17.067 12.8-6.528 2.987-13.653 4.693-20.864 4.693zM404.736 316.587v-341.333h-341.205v341.333h341.205zM977.067 380.16h-372.309c-12.288 0-24.064-5.12-32.768-13.653-8.704-8.96-13.611-20.48-13.739-32.853v-372.48c0.213-12.373 5.205-23.893 13.867-32.853 8.661-8.533 20.352-13.227 32.64-13.653h372.309c12.288 0 24.064 5.12 32.725 13.653 8.704 8.96 13.653 20.48 13.739 32.853v372.48c0.853 5.12 0.512 10.667-0.939 15.36-1.493 5.12-4.053 9.813-7.552 13.653-4.693 5.547-10.539 9.813-17.067 12.8-6.571 2.987-13.696 4.693-20.907 4.693zM962.987 316.587v-341.333h-341.163v341.333h341.163z" />
<glyph unicode="&#xe901;" glyph-name="icon-arrow-left" d="M262.357 181.76c4.437 2.091 8.491 4.864 12.075 8.192 6.955 7.339 10.795 17.067 10.752 27.136 0 4.992-0.853 9.984-2.56 14.677-1.963 4.48-4.736 8.576-8.192 12.032l-123.221 122.795-7.723 6.016-14.677 15.104h857.259c5.077 0 10.069 0.981 14.72 2.944s8.875 4.821 12.416 8.448c3.541 3.627 6.315 7.893 8.149 12.587s2.731 9.728 2.645 14.763c0 10.069-4.011 19.712-11.093 26.837-7.125 7.083-16.768 11.093-26.837 11.093h-857.259l14.677 14.635 7.723 7.765 122.795 122.752c3.627 3.584 6.528 7.851 8.619 12.501 1.707 4.395 2.603 9.088 2.56 13.781 0.128 10.24-3.755 20.139-10.752 27.563-3.669 3.456-7.893 6.229-12.501 8.192-4.267 1.621-8.789 2.517-13.355 2.603-4.864 0.043-9.685-0.811-14.208-2.603-4.565-2.048-8.789-4.821-12.501-8.192l-210.645-209.792c-3.499-3.584-6.272-7.808-8.192-12.459-2.048-4.309-3.115-9.045-3.029-13.824-0.171-5.163 0.896-10.325 3.029-15.061 1.792-4.693 4.608-8.96 8.192-12.501l210.645-209.365c3.584-3.627 7.808-6.528 12.501-8.619 4.608-1.92 9.643-2.773 14.635-2.56 4.565 0.128 9.088 1.024 13.355 2.56z" />
<glyph unicode="&#xe902;" glyph-name="icon-arrow-right" d="M761.643 671.574c-4.437-2.091-8.491-4.864-12.075-8.192-6.955-7.339-10.795-17.067-10.752-27.136 0-4.992 0.853-9.984 2.56-14.677 1.963-4.48 4.736-8.576 8.192-12.032l123.221-122.795 7.723-6.016 14.677-15.104h-857.259c-5.077 0-10.069-0.981-14.72-2.944s-8.875-4.821-12.416-8.448c-3.541-3.627-6.315-7.893-8.149-12.587s-2.731-9.728-2.645-14.763c0-10.069 4.011-19.712 11.093-26.837 7.125-7.083 16.768-11.093 26.837-11.093h857.259l-14.677-14.635-7.723-7.765-122.795-122.752c-3.627-3.584-6.528-7.851-8.619-12.501-1.707-4.395-2.603-9.088-2.56-13.781-0.128-10.24 3.755-20.139 10.752-27.563 3.669-3.456 7.893-6.229 12.501-8.192 4.267-1.621 8.789-2.517 13.355-2.603 4.864-0.043 9.685 0.811 14.208 2.603 4.565 2.048 8.789 4.821 12.501 8.192l210.645 209.792c3.499 3.584 6.272 7.808 8.192 12.459 2.048 4.309 3.115 9.045 3.029 13.824 0.171 5.163-0.896 10.325-3.029 15.061-1.792 4.693-4.608 8.96-8.192 12.501l-210.645 209.365c-3.584 3.627-7.808 6.528-12.501 8.619-4.608 1.92-9.643 2.773-14.635 2.56-4.565-0.128-9.088-1.024-13.355-2.56z" />
<glyph unicode="&#xe903;" glyph-name="icon-arrow-up" d="M267.093 676.31c2.091-4.437 4.864-8.491 8.192-12.075 7.339-6.955 17.067-10.795 27.136-10.752 4.992 0 9.984 0.853 14.677 2.56 4.48 1.963 8.576 4.736 12.032 8.192l122.795 123.221 6.016 7.723 15.104 14.677v-857.259c0-5.077 0.981-10.069 2.944-14.72s4.821-8.875 8.448-12.416c3.627-3.541 7.893-6.315 12.587-8.149s9.728-2.731 14.763-2.645c10.069 0 19.712 4.011 26.837 11.093 7.083 7.125 11.093 16.768 11.093 26.837v857.259l14.635-14.677 7.765-7.723 122.752-122.795c3.584-3.627 7.851-6.528 12.501-8.619 4.395-1.707 9.088-2.603 13.781-2.56 10.24-0.128 20.139 3.755 27.563 10.752 3.456 3.669 6.229 7.893 8.192 12.501 1.621 4.267 2.517 8.789 2.603 13.355 0.043 4.864-0.811 9.685-2.603 14.208-2.048 4.565-4.821 8.789-8.192 12.501l-209.792 210.645c-3.584 3.499-7.808 6.272-12.459 8.192-4.309 2.048-9.045 3.115-13.824 3.029-5.163 0.171-10.325-0.896-15.061-3.029-4.693-1.792-8.96-4.608-12.501-8.192l-209.365-210.645c-3.627-3.584-6.528-7.808-8.619-12.501-1.92-4.608-2.773-9.643-2.56-14.635 0.128-4.565 1.024-9.088 2.56-13.355z" />
<glyph unicode="&#xe904;" glyph-name="icon-arrow-down" d="M756.907 177.024c-2.091 4.437-4.864 8.491-8.192 12.075-7.339 6.955-17.067 10.795-27.136 10.752-4.992 0-9.984-0.853-14.677-2.56-4.48-1.963-8.576-4.736-12.032-8.192l-122.795-123.221-6.016-7.723-15.104-14.677v857.259c0 5.077-0.981 10.069-2.944 14.72s-4.821 8.875-8.448 12.416c-3.627 3.541-7.893 6.315-12.587 8.149s-9.728 2.731-14.763 2.645c-10.069 0-19.712-4.011-26.837-11.093-7.083-7.125-11.093-16.768-11.093-26.837v-857.259l-14.635 14.677-7.765 7.723-122.752 122.795c-3.584 3.627-7.851 6.528-12.501 8.619-4.395 1.707-9.088 2.603-13.781 2.56-10.24 0.128-20.139-3.755-27.563-10.752-3.456-3.669-6.229-7.893-8.192-12.501-1.621-4.267-2.517-8.789-2.603-13.355-0.043-4.864 0.811-9.685 2.603-14.208 2.048-4.565 4.821-8.789 8.192-12.501l209.792-210.645c3.584-3.499 7.808-6.272 12.459-8.192 4.309-2.048 9.045-3.115 13.824-3.029 5.163-0.171 10.325 0.896 15.061 3.029 4.693 1.792 8.96 4.608 12.501 8.192l209.365 210.645c3.627 3.584 6.528 7.808 8.619 12.501 1.92 4.608 2.773 9.643 2.56 14.635-0.128 4.565-1.024 9.088-2.56 13.355z" />
<glyph unicode="&#xe905;" glyph-name="icon-arrow-updown" d="M756.907 177.024c-2.091 4.437-4.864 8.491-8.192 12.075-7.339 6.955-17.067 10.795-27.136 10.752-4.992 0-9.984-0.896-14.677-2.56-4.48-1.963-8.576-4.736-12.032-8.192l-122.795-123.221-6.016-7.765-14.635-14.208v765.525l14.635-15.488 7.296-7.765 121.941-122.795c3.328-3.712 7.467-6.656 12.075-8.619 4.523-1.749 9.344-2.645 14.208-2.56 10.197-0.085 20.096 3.797 27.563 10.752 3.285 3.712 5.888 7.936 7.765 12.501 1.92 4.608 2.816 9.643 2.56 14.635 0 4.992-0.853 9.941-2.56 14.635-1.92 4.523-4.693 8.619-8.192 12.075l-209.792 210.645c-3.456 3.627-7.552 6.571-12.075 8.619-4.565 1.664-9.344 2.56-14.208 2.603-5.12-0.043-10.155-1.109-14.848-3.2-4.651-2.048-8.832-5.077-12.288-8.875l-209.792-209.792c-3.669-3.584-6.571-7.808-8.619-12.501-1.664-4.523-2.56-9.344-2.603-14.208-0.085-5.163 0.939-10.325 3.029-15.061 1.749-4.608 4.523-8.747 8.192-12.075 7.168-6.869 16.725-10.752 26.709-10.752 4.992-0.085 9.941 0.768 14.635 2.56 4.608 1.963 8.704 4.907 12.075 8.619l130.517 130.56 14.208 15.488v-765.952l-22.4 22.4-122.325 122.795c-3.584 3.627-7.851 6.528-12.501 8.619-4.395 1.707-9.088 2.56-13.781 2.56-10.24 0.128-20.139-3.755-27.563-10.752-3.456-3.669-6.229-7.893-8.192-12.501-1.621-4.267-2.517-8.789-2.603-13.355-0.043-4.864 0.811-9.685 2.603-14.208 2.048-4.565 4.821-8.789 8.192-12.501l209.792-210.645c3.584-3.499 7.808-6.315 12.459-8.192 4.309-2.091 9.045-3.115 13.824-3.029 5.163 0.043 10.283 1.109 15.019 3.2 4.736 2.048 9.003 5.077 12.544 8.875l208.512 209.792c3.627 3.584 6.528 7.808 8.576 12.501 1.963 4.608 2.816 9.643 2.603 14.635 0.128 4.523-0.469 9.003-1.707 13.355z" />
<glyph unicode="&#xe906;" glyph-name="icon-chevron-left" d="M345.6 426.667l432.213 431.787c8.661 8.96 13.525 20.864 13.653 33.28-0.043 12.459-4.949 24.405-13.653 33.28-8.832 8.747-20.821 13.653-33.28 13.653s-24.405-4.907-33.28-13.653l-465.067-465.067c-8.747-8.875-13.653-20.821-13.653-33.28s4.907-24.405 13.653-33.28l465.067-465.067c8.875-8.747 20.821-13.653 33.28-13.653s24.448 4.907 33.28 13.653c8.704 8.875 13.611 20.821 13.653 33.28-0.043 12.331-4.949 24.107-13.653 32.853l-432.213 432.213z" />
<glyph unicode="&#xe907;" glyph-name="icon-chevron-right" d="M678.4 426.667l-432.213-431.787c-8.661-8.96-13.525-20.864-13.653-33.28 0.043-12.459 4.949-24.405 13.653-33.28 8.832-8.747 20.821-13.653 33.28-13.653s24.405 4.907 33.28 13.653l465.067 465.067c8.747 8.875 13.653 20.821 13.653 33.28s-4.907 24.405-13.653 33.28l-465.067 465.067c-8.875 8.747-20.821 13.653-33.28 13.653s-24.448-4.907-33.28-13.653c-8.704-8.875-13.611-20.821-13.653-33.28 0.043-12.331 4.949-24.107 13.653-32.853l432.213-432.213z" />
<glyph unicode="&#xe908;" glyph-name="icon-chevron-up" d="M512 593.067l431.787-432.213c8.96-8.661 20.864-13.525 33.28-13.653 12.459 0.043 24.405 4.949 33.28 13.653 8.747 8.832 13.653 20.821 13.653 33.28s-4.907 24.405-13.653 33.28l-465.067 465.067c-8.875 8.747-20.821 13.653-33.28 13.653s-24.405-4.907-33.28-13.653l-465.067-465.067c-8.747-8.875-13.653-20.821-13.653-33.28s4.907-24.448 13.653-33.28c8.875-8.704 20.821-13.611 33.28-13.653 12.331 0.043 24.107 4.949 32.853 13.653l432.213 432.213z" />
<glyph unicode="&#xe909;" glyph-name="icon-chevron-down" d="M512 260.267l-431.787 432.213c-8.96 8.661-20.864 13.525-33.28 13.653-12.459-0.043-24.405-4.949-33.28-13.653-8.747-8.832-13.653-20.821-13.653-33.28s4.907-24.405 13.653-33.28l465.067-465.067c8.875-8.747 20.821-13.653 33.28-13.653s24.405 4.907 33.28 13.653l465.067 465.067c8.747 8.875 13.653 20.821 13.653 33.28s-4.907 24.448-13.653 33.28c-8.875 8.704-20.821 13.611-33.28 13.653-12.331-0.043-24.107-4.949-32.853-13.653l-432.213-432.213z" />
<glyph unicode="&#xe90a;" glyph-name="icon-close" d="M447.317 426.454l-433.877-433.963c-7.723-8.747-11.819-20.139-11.435-31.787 0.384-11.691 5.205-22.784 13.483-31.019 8.235-8.277 19.371-13.056 31.061-13.44s23.083 3.669 31.872 11.392l433.877 433.067 3.029-2.987 430.421-429.653c8.619-8.576 20.309-13.397 32.512-13.397 12.16 0 23.851 4.821 32.512 13.397 8.491 8.661 13.227 20.309 13.227 32.427s-4.736 23.765-13.227 32.427l-433.493 432.256 3.029 2.987 430.464 429.653c8.491 8.661 13.227 20.309 13.227 32.427s-4.736 23.765-13.227 32.427c-8.363 8.448-19.669 13.312-31.531 13.653-11.861 0.299-23.381-3.968-32.213-11.947l-433.451-432.64-2.987 3.029-430.464 429.611c-4.309 4.523-9.472 8.107-15.189 10.581-5.76 2.432-11.904 3.712-18.176 3.712-6.229 0-12.416-1.28-18.133-3.712-5.717-2.475-10.923-6.059-15.189-10.581-8.619-8.576-13.44-20.267-13.44-32.427s4.821-23.808 13.44-32.427l433.877-433.067z" />
<glyph unicode="&#xe90b;" glyph-name="icon-menu-hamburger" d="M933.333 775.935c0.883 0.043 1.772 0.065 2.667 0.065 29.436 0 53.333-23.897 53.333-53.333s-23.897-53.333-53.333-53.333c-0.895 0-1.784 0.023-2.667 0.065v0h-842.671c-0.884-0.044-1.771-0.065-2.663-0.065s-1.779 0.021-2.663 0.065h-0.004c-28.2 1.393-50.667 24.728-50.667 53.268s22.467 51.875 50.667 53.268v0.065l848-0.065zM933.333 479.935c0.883 0.043 1.772 0.065 2.667 0.065 29.436 0 53.333-23.897 53.333-53.333s-23.897-53.333-53.333-53.333c-0.895 0-1.784 0.023-2.667 0.065v0h-842.671c-0.884-0.044-1.771-0.065-2.663-0.065s-1.779 0.021-2.663 0.065h-0.004c-28.2 1.393-50.667 24.728-50.667 53.268s22.467 51.875 50.667 53.268v0.065l848-0.065zM933.333 183.935c0.883 0.043 1.772 0.065 2.667 0.065 29.436 0 53.333-23.897 53.333-53.333s-23.897-53.333-53.333-53.333c-0.895 0-1.784 0.023-2.667 0.065v0h-842.671c-0.884-0.044-1.771-0.065-2.663-0.065s-1.779 0.021-2.663 0.065h-0.004c-28.2 1.393-50.667 24.728-50.667 53.268s22.467 51.875 50.667 53.268v0.065l848-0.065z" />
<glyph unicode="&#xe90c;" glyph-name="icon-menu-kebab" d="M597.333 793.6c0-47.128-38.205-85.333-85.333-85.333s-85.333 38.205-85.333 85.333c0 47.128 38.205 85.333 85.333 85.333s85.333-38.205 85.333-85.333zM597.333 426.667c0-47.128-38.205-85.333-85.333-85.333s-85.333 38.205-85.333 85.333c0 47.128 38.205 85.333 85.333 85.333s85.333-38.205 85.333-85.333zM597.333 59.734c0-47.128-38.205-85.333-85.333-85.333s-85.333 38.205-85.333 85.333c0 47.128 38.205 85.333 85.333 85.333s85.333-38.205 85.333-85.333z" />
<glyph unicode="&#xe90d;" glyph-name="icon-menu-meatballs" d="M878.933 341.334c-47.128 0-85.333 38.205-85.333 85.333s38.205 85.333 85.333 85.333c47.128 0 85.333-38.205 85.333-85.333s-38.205-85.333-85.333-85.333zM512 341.334c-47.128 0-85.333 38.205-85.333 85.333s38.205 85.333 85.333 85.333c47.128 0 85.333-38.205 85.333-85.333s-38.205-85.333-85.333-85.333zM145.067 341.334c-47.128 0-85.333 38.205-85.333 85.333s38.205 85.333 85.333 85.333c47.128 0 85.333-38.205 85.333-85.333s-38.205-85.333-85.333-85.333z" />
<glyph unicode="&#xe90e;" glyph-name="icon-check" d="M1009.621 794.283c-3.968 4.139-8.747 7.424-14.037 9.643-5.291 2.261-10.965 3.413-16.683 3.413-5.76 0-11.435-1.152-16.725-3.413-5.291-2.219-10.027-5.504-14.037-9.643l-633.856-630.016-26.027 25.6-204.032 206.592c-4.309 4.821-9.557 8.704-15.445 11.435s-12.245 4.181-18.731 4.352c-6.485 0.171-12.971-1.195-18.901-3.925-5.888-2.731-11.136-6.784-15.232-11.861-4.821-4.309-8.704-9.557-11.435-15.445-2.688-5.888-4.181-12.245-4.352-18.688-0.427-5.376 0.213-10.752 2.005-15.829 1.749-5.077 4.565-9.728 8.235-13.653l2.987-2.133 268.928-268.885c9.685-8.32 21.504-13.781 34.133-15.787 6.485 0.043 12.885 1.493 18.773 4.224s11.136 6.656 15.36 11.563l661.632 662.869c7.637 9.685 11.819 21.632 11.819 33.963 0 12.288-4.181 24.277-11.819 33.92l-2.56 1.707z" />
<glyph unicode="&#xe90f;" glyph-name="icon-checkbox-unchecked" d="M830.72-85.333h-637.44c-51.243 0-100.437 20.352-136.661 56.619-36.267 36.224-56.619 85.419-56.619 136.661v637.44c0 51.243 20.352 100.437 56.619 136.661 36.224 36.267 85.419 56.619 136.661 56.619h637.44c51.243 0 100.437-20.352 136.661-56.619 36.267-36.224 56.619-85.419 56.619-136.661v-637.44c0-51.243-20.352-100.437-56.619-136.661-36.224-36.267-85.419-56.619-136.661-56.619zM193.28 870.827c-33.28 0-65.152-13.227-88.704-36.736-23.509-23.509-36.736-55.424-36.736-88.704v-637.44c0-33.28 13.227-65.195 36.736-88.704 23.552-23.509 55.424-36.736 88.704-36.736h637.44c33.28 0 65.195 13.227 88.704 36.736s36.736 55.424 36.736 88.704v637.44c0 33.28-13.227 65.195-36.736 88.704s-55.424 36.736-88.704 36.736h-637.44z" />
<glyph unicode="&#xe910;" glyph-name="icon-checkbox-checked" d="M830.72-85.333h-637.44c-51.243 0-100.437 20.352-136.661 56.619-36.267 36.224-56.619 85.419-56.619 136.661v637.44c0 51.243 20.352 100.437 56.619 136.661 36.224 36.267 85.419 56.619 136.661 56.619h637.44c51.243 0 100.437-20.352 136.661-56.619 36.267-36.224 56.619-85.419 56.619-136.661v-637.44c0-51.243-20.352-100.437-56.619-136.661-36.224-36.267-85.419-56.619-136.661-56.619zM753.451 625.792c-4.224 4.48-9.344 8.064-15.019 10.496s-11.776 3.712-17.963 3.712c-6.144 0-12.245-1.28-17.92-3.712s-10.795-6.016-15.019-10.496l-292.736-292.693-96.171 96.128c-9.301 9.387-21.845 14.805-35.072 15.147-6.571 0-13.056-1.323-19.115-3.925-6.016-2.603-11.477-6.4-15.957-11.221-9.344-9.301-14.763-21.845-15.104-35.072-0.256-6.485 0.939-13.013 3.584-18.987 2.603-5.973 6.571-11.264 11.52-15.488l131.243-131.243c9.6-8.917 22.016-14.251 35.072-15.104 6.485 0 12.885 1.365 18.816 3.968s11.264 6.4 15.659 11.136l328.405 328.405c7.723 10.069 11.563 22.613 10.795 35.285s-6.101 24.619-15.019 33.664z" />
<glyph unicode="&#xe911;" glyph-name="icon-checkbox-mark" d="M830.72-85.333h-637.44c-51.243 0-100.437 20.352-136.661 56.619-36.267 36.224-56.619 85.419-56.619 136.661v637.44c0 51.243 20.352 100.437 56.619 136.661 36.224 36.267 85.419 56.619 136.661 56.619h637.44c51.243 0 100.437-20.352 136.661-56.619 36.267-36.224 56.619-85.419 56.619-136.661v-637.44c0-51.243-20.352-100.437-56.619-136.661-36.224-36.267-85.419-56.619-136.661-56.619zM711.339 292.907l-136.576 136.064 136.576 135.424c7.509 8.363 11.648 19.2 11.648 30.379 0 11.221-4.139 22.016-11.648 30.379-8.277 7.723-19.157 12.032-30.507 12.032-11.307 0-22.229-4.309-30.464-12.032l-139.605-133.035-136.576 136.064c-8.32 7.595-19.2 11.819-30.507 11.819-11.264 0-22.144-4.224-30.464-11.819-7.381-8.405-11.477-19.2-11.477-30.379 0-11.136 4.096-21.931 11.477-30.336l136.576-138.496-139.648-136.064c-7.381-8.405-11.435-19.2-11.435-30.379s4.053-21.973 11.435-30.379c8.32-7.595 19.2-11.819 30.507-11.819 11.264 0 22.144 4.224 30.464 11.819l139.648 130.603 136.533-136.064c8.405-8.448 19.797-13.269 31.744-13.355 12.032 0.256 23.595 5.035 32.299 13.355 4.437 4.309 7.979 9.472 10.368 15.147 2.432 5.675 3.669 11.776 3.669 17.963s-1.237 12.288-3.669 17.963c-2.389 5.675-5.931 10.837-10.368 15.147z" />
<glyph unicode="&#xe912;" glyph-name="icon-radio-unchecked" d="M512-85.333c-101.248 0-200.235 30.037-284.459 86.272-84.181 56.277-149.803 136.235-188.587 229.803-38.741 93.525-48.853 196.48-29.099 295.808s68.48 190.549 140.117 262.144c71.595 71.595 162.816 120.363 262.144 140.117s202.24 9.643 295.808-29.099c93.568-38.784 173.525-104.405 229.803-188.587 56.235-84.224 86.272-183.211 86.272-284.459 0-135.808-53.931-266.027-149.973-362.027-96-96.043-226.219-149.973-362.027-149.973zM512 871.254c-88.277 0.427-174.677-25.344-248.32-74.027-73.6-48.683-131.157-118.101-165.291-199.509-34.176-81.365-43.435-171.093-26.667-257.749 16.811-86.613 58.965-166.357 121.088-229.077 62.080-62.72 141.397-105.6 227.883-123.221 86.528-17.621 176.299-9.216 258.005 24.149 81.707 33.408 151.68 90.283 201.045 163.413 49.408 73.173 75.989 159.317 76.416 247.595 0.341 118.315-46.208 231.893-129.451 315.947s-196.395 131.669-314.709 132.48z" />
<glyph unicode="&#xe913;" glyph-name="icon-radio-checked" d="M512 133.803c159.616 0 289.024 129.408 289.024 289.024s-129.408 289.024-289.024 289.024c-159.616 0-289.024-129.408-289.024-289.024s129.408-289.024 289.024-289.024zM512-85.333c-101.248 0-200.235 30.037-284.459 86.272-84.181 56.277-149.803 136.235-188.587 229.803-38.741 93.525-48.853 196.48-29.099 295.808s68.48 190.549 140.117 262.144c71.595 71.595 162.816 120.363 262.144 140.117s202.24 9.643 295.808-29.141c93.568-38.741 173.525-104.363 229.803-188.544 56.235-84.224 86.272-183.211 86.272-284.459 0-135.808-53.931-266.027-149.973-362.027-96-96.043-226.219-149.973-362.027-149.973zM512 871.254c-88.277 0.427-174.677-25.344-248.32-74.027-73.6-48.683-131.157-118.144-165.291-199.509-34.176-81.408-43.435-171.093-26.667-257.749 16.811-86.656 58.965-166.357 121.088-229.077 62.080-62.72 141.397-105.6 227.883-123.221 86.528-17.621 176.299-9.216 258.005 24.149 81.707 33.408 151.68 90.283 201.045 163.413 49.408 73.173 75.989 159.317 76.416 247.595 0.341 118.272-46.208 231.893-129.451 315.947s-196.395 131.669-314.709 132.48z" />
<glyph unicode="&#xe914;" glyph-name="icon-circle-check" d="M512 938.667c282.581 0 512-229.419 512-512s-229.419-512-512-512c-282.581 0-512 229.419-512 512s229.419 512 512 512zM753.451 625.792c-4.224 4.48-9.344 8.064-15.019 10.496s-11.776 3.712-17.963 3.712c-6.144 0-12.245-1.28-17.92-3.712s-10.795-6.016-15.019-10.496l-292.736-292.693-96.171 96.128c-9.301 9.387-21.845 14.805-35.072 15.147-6.571 0-13.056-1.323-19.115-3.925-6.016-2.603-11.477-6.4-15.957-11.221-9.344-9.301-14.763-21.845-15.104-35.072-0.256-6.485 0.939-13.013 3.584-18.987 2.603-5.973 6.571-11.264 11.52-15.488l131.243-131.243c9.6-8.917 22.016-14.251 35.072-15.104 6.485 0 12.885 1.365 18.816 3.968s11.264 6.4 15.659 11.136l328.405 328.405c7.723 10.069 11.563 22.613 10.795 35.285s-6.101 24.619-15.019 33.664z" />
<glyph unicode="&#xe915;" glyph-name="icon-circle-remove" d="M512-85.333c-101.248 0-200.235 30.037-284.459 86.272-84.181 56.277-149.803 136.235-188.587 229.803-38.741 93.525-48.853 196.48-29.099 295.808s68.48 190.549 140.117 262.144c71.595 71.595 162.816 120.363 262.144 140.117s202.24 9.643 295.808-29.141c93.568-38.741 173.525-104.363 229.803-188.544 56.235-84.224 86.272-183.211 86.272-284.459 0-135.808-53.931-266.027-149.973-362.027-96-96.043-226.219-149.973-362.027-149.973zM512 871.254c-88.277 0.427-174.677-25.344-248.32-74.027-73.6-48.683-131.157-118.144-165.291-199.509-34.176-81.408-43.435-171.093-26.667-257.749 16.811-86.656 58.965-166.357 121.088-229.077 62.080-62.72 141.397-105.6 227.883-123.221 86.528-17.621 176.299-9.216 258.005 24.149 81.707 33.408 151.68 90.283 201.045 163.413 49.408 73.173 75.989 159.317 76.416 247.595 0.341 118.272-46.208 231.893-129.451 315.947s-196.395 131.669-314.709 132.48zM711.296 289.067l-136.576 136.064 136.576 135.424c7.509 8.363 11.648 19.2 11.648 30.379 0 11.221-4.139 22.016-11.648 30.379-8.277 7.723-19.157 12.032-30.507 12.032-11.307 0-22.229-4.309-30.464-12.032l-139.605-133.035-136.576 136.064c-8.32 7.595-19.2 11.819-30.507 11.819-11.264 0-22.144-4.224-30.464-11.819-7.381-8.405-11.477-19.2-11.477-30.379 0-11.136 4.096-21.931 11.477-30.336l136.576-138.496-139.648-136.064c-7.381-8.405-11.435-19.2-11.435-30.379s4.053-21.973 11.435-30.379c8.32-7.595 19.2-11.819 30.507-11.819 11.264 0 22.144 4.224 30.464 11.819l139.648 130.603 136.533-136.064c8.405-8.448 19.797-13.269 31.744-13.355 12.032 0.256 23.595 5.035 32.299 13.355 4.437 4.309 7.979 9.472 10.368 15.147 2.432 5.675 3.669 11.776 3.669 17.963s-1.237 12.288-3.669 17.963c-2.389 5.675-5.931 10.837-10.368 15.147z" />
<glyph unicode="&#xe916;" glyph-name="icon-circle-clear" d="M1024 426.667c0-282.77-229.23-512-512-512s-512 229.23-512 512c0 282.77 229.23 512 512 512s512-229.23 512-512zM711.339 292.907l-136.576 136.064 136.576 135.424c7.509 8.363 11.648 19.2 11.648 30.379 0 11.221-4.139 22.016-11.648 30.379-8.277 7.723-19.157 12.032-30.507 12.032-11.307 0-22.229-4.309-30.464-12.032l-139.605-133.035-136.576 136.064c-8.32 7.595-19.2 11.819-30.507 11.819-11.264 0-22.144-4.224-30.464-11.819-7.381-8.405-11.477-19.2-11.477-30.379 0-11.136 4.096-21.931 11.477-30.336l136.576-138.496-139.648-136.064c-7.381-8.405-11.435-19.2-11.435-30.379s4.053-21.973 11.435-30.379c8.32-7.595 19.2-11.819 30.507-11.819 11.264 0 22.144 4.224 30.464 11.819l139.648 130.603 136.533-136.064c8.405-8.448 19.797-13.269 31.744-13.355 12.032 0.256 23.595 5.035 32.299 13.355 4.437 4.309 7.979 9.472 10.368 15.147 2.432 5.675 3.669 11.776 3.669 17.963s-1.237 12.288-3.669 17.963c-2.389 5.675-5.931 10.837-10.368 15.147z" />
<glyph unicode="&#xe917;" glyph-name="icon-bar-scan" d="M316.587 856.32c-12.373 0-24.32-4.693-32.853-13.653-8.96-8.533-13.653-20.48-13.653-32.853v-545.28c-0.427-6.4 0.853-12.373 2.987-18.347s5.547-11.093 9.813-15.787c4.267-4.693 9.813-8.107 15.36-10.667 5.973-2.133 11.947-3.413 18.347-3.413 6.4-0.427 12.8 0.427 18.773 2.56s11.52 5.973 15.787 10.667c4.693 4.267 7.68 9.813 9.813 16.213 2.133 5.973 2.56 12.373 1.707 18.773v545.28c-4.267 22.187-21.333 46.507-46.080 46.507zM977.493 856.32c-12.373 0-23.893-5.12-32.853-13.653-8.533-8.96-13.653-20.48-13.653-32.853v-764.16c0-12.373 5.12-23.893 13.653-32.853 8.96-8.533 20.48-13.653 32.853-13.653 6.4-0.427 12.373 0 18.347 2.133s11.52 5.547 15.787 10.24c4.693 4.267 8.107 9.813 10.24 15.787s2.56 11.947 2.133 18.347v764.16c-4.693 22.187-23.467 46.507-46.507 46.507zM316.587 88.32c-5.973 0.427-11.947 0-17.493-2.133-5.547-1.707-10.667-4.693-15.36-8.96-4.267-3.84-7.68-8.96-10.24-14.507-2.133-5.12-3.413-11.093-3.413-17.067 0.853-11.947 6.4-23.040 14.933-31.573s19.627-14.080 31.573-14.933c12.373 0 24.32 4.693 32.853 13.653 8.96 8.533 13.653 20.48 13.653 32.853s-4.693 24.32-13.653 32.853c-8.533 8.96-20.48 13.653-32.853 13.653v-3.84zM757.333 88.32c-5.973 0.427-11.947 0-17.493-2.133-5.547-1.707-10.667-4.693-15.36-8.96-4.267-3.84-7.68-8.96-10.24-14.507-2.133-5.12-3.413-11.093-3.413-17.067 0.853-11.947 6.4-23.040 14.933-31.573s19.627-14.080 31.573-14.933c12.373 0 23.893 5.12 32.427 13.653 8.96 8.96 13.653 20.48 13.653 32.853 0 5.973-1.28 11.947-3.413 17.067-2.56 5.547-5.973 10.24-10.24 14.507-4.267 3.84-9.387 6.827-14.933 8.96-5.547 1.707-11.52 2.56-17.493 2.133zM73.813 850.774c-19.2-0.427-37.973-8.533-51.627-22.187s-21.76-32.427-22.187-51.627v-705.28c0.427-19.627 8.533-37.973 22.187-52.053 13.653-13.653 32-21.76 51.627-22.187 9.813-0.427 19.627 1.707 28.587 5.12 9.387 3.84 17.493 8.96 24.32 16.213 7.253 6.827 12.373 14.933 16.213 24.32 3.413 8.96 5.547 18.773 5.12 28.587v705.28c-0.427 19.627-8.533 37.973-22.187 51.627-14.080 13.653-32.427 21.76-52.053 22.187zM525.653 856.32c-17.92-0.427-34.987-8.107-47.787-20.48-12.373-12.8-20.053-29.867-20.48-47.787v-721.92c0.427-17.92 7.68-34.987 20.48-47.787s29.867-20.48 47.787-20.907c8.96-0.427 17.92 1.28 26.453 4.693s16.213 8.533 22.613 14.933c6.4 6.4 11.52 14.080 14.933 22.613s5.12 17.493 4.693 26.453v721.92c-0.427 17.92-8.107 34.987-20.907 47.787s-29.867 20.053-47.787 20.48zM768 850.774h-10.667c-12.373 0-24.32-4.693-32.853-13.653-8.96-8.533-13.653-20.48-13.653-32.853v-594.773c0-5.973 1.28-12.373 3.413-17.92s5.547-10.667 10.24-14.933c4.267-4.693 9.387-8.107 14.933-10.24s11.947-3.413 17.92-3.413h10.667c5.973 0 12.373 1.28 17.92 3.413s10.667 5.547 14.933 10.24c4.693 4.267 8.107 9.387 10.24 14.933s3.413 11.947 3.413 17.92v594.773c0 5.973-1.28 12.373-3.413 17.92s-5.547 10.667-10.24 14.933c-4.267 4.693-9.387 8.107-14.933 10.24s-11.947 3.413-17.92 3.413z" />
<glyph unicode="&#xe918;" glyph-name="icon-bin-empty" d="M836.523 98.176c-8.789 1.28-17.621-1.707-24.533-7.253s-11.349-13.653-12.288-22.187c0.043-11.52-2.261-23.040-6.784-33.28-4.523-10.667-11.179-20.053-19.499-27.733s-18.133-13.653-28.843-17.067c-10.709-3.84-22.059-5.12-33.365-4.267-138.88-2.56-273.493-2.56-400.128 0-10.923-0.427-21.845 1.28-32.085 5.12-10.283 3.84-19.627 9.813-27.563 17.067-7.893 7.68-14.208 17.067-18.517 26.88-4.309 10.24-6.485 21.333-6.485 32.427-16.085 147.2-43.605 487.68-44.032 493.227-0.341 4.267-1.536 8.533-3.499 12.8-2.005 3.84-4.736 7.253-8.064 10.24-3.371 2.987-7.253 5.12-11.435 6.4s-8.619 2.133-13.013 1.707c-8.917-0.853-17.152-5.12-22.955-11.947s-8.661-15.787-7.936-24.747c0-3.413 27.947-348.587 42.325-494.507 0.555-19.627 4.949-38.827 12.885-56.747s19.285-33.707 33.408-46.933c14.123-13.653 30.72-23.893 48.853-30.72 18.176-7.253 37.461-10.24 56.875-9.813 65.621 0 133.76-2.133 203.648-2.133h198.997c39.125-1.28 77.269 12.373 106.112 39.253 28.8 26.453 45.909 63.573 47.573 103.253 1.109 4.693 1.195 9.387 0.256 14.080s-2.859 9.387-5.675 13.227c-2.816 3.84-6.443 7.253-10.624 9.387-4.181 2.56-8.789 3.84-13.611 4.267zM879.701 592.256c-4.395 0.427-8.875 0-13.099-1.707-4.267-1.28-8.192-3.413-11.563-6.4-3.413-2.56-6.187-6.4-8.192-10.24s-3.243-8.533-3.541-12.8c0 0-12.288-156.587-25.387-303.36-0.427-4.693 0.043-8.96 1.365-13.227s3.456-8.107 6.272-11.52c2.859-3.413 6.315-6.4 10.24-8.533 3.925-1.707 8.192-2.987 12.587-3.413h2.987c8.32 0 16.384 2.987 22.528 8.96 6.187 5.547 10.069 13.227 10.88 21.76 13.141 147.2 25.856 303.787 25.856 303.787 0.597 8.96-2.304 17.92-8.064 24.747-5.803 6.827-13.995 11.093-22.869 11.947zM947.883 758.614h-169.344c-11.947 0.213-23.467 4.565-32.555 12.331-9.131 7.765-15.275 18.432-17.408 30.251l-12.715 64.725c-5.888 20.693-18.261 38.955-35.243 52.053-17.024 13.099-37.76 20.395-59.179 20.736h-217.173c-22.187-0.128-43.691-7.68-61.099-21.504-17.408-13.781-29.739-33.067-35.029-54.699l-12.715-62.592c-2.048-11.819-8.192-22.571-17.323-30.336-9.131-7.808-20.651-12.117-32.64-12.245h-169.344c-8.875 0-17.365-3.541-23.637-9.856-6.272-6.272-9.813-14.848-9.813-23.765s3.541-17.451 9.813-23.765c6.272-6.315 14.763-9.856 23.637-9.856h871.765c8.875 0 17.365 3.541 23.637 9.856s9.813 14.848 9.813 23.765c0 8.917-3.541 17.493-9.813 23.765-6.272 6.315-14.763 9.856-23.637 9.856v1.28zM361.472 786.731l11.861 60.459c1.877 6.827 5.888 12.843 11.477 17.152s12.416 6.656 19.456 6.656h217.173c6.699 0.043 13.227-2.048 18.688-5.931s9.6-9.387 11.819-15.744l12.672-62.592c1.92-9.771 5.205-19.243 9.771-28.117h-322.645c4.395 8.96 7.637 18.389 9.728 28.117z" />
<glyph unicode="&#xe919;" glyph-name="icon-bin-solid" d="M911.787 555.52c0-3.413-27.819-347.733-43.435-492.8-0.384-19.627-4.821-39.253-12.971-57.173-8.192-18.347-19.968-34.56-34.645-48.213s-32-24.32-50.901-31.147c-18.901-6.827-39.040-10.24-59.221-9.387-67.371 0-133.419-2.133-198.613-2.133s-136.021 2.133-201.643 2.133c-39.68-0.427-77.867 14.507-106.453 41.813-28.587 26.88-45.269 63.573-46.507 102.4-16.085 145.92-43.477 489.387-43.477 492.8-0.427 5.12 0.213 10.24 1.877 15.36 1.621 4.693 4.267 9.387 7.68 13.227 3.029 4.267 6.997 8.107 11.691 10.667 4.651 2.987 9.856 4.267 15.275 5.12h723.541c5.077 0 10.112-1.28 14.763-3.413s8.789-5.12 12.203-8.533c4.053-4.267 7.125-8.96 9.045-14.080 1.877-5.547 2.475-11.093 1.792-16.64zM981.333 735.574c0.043 4.864-0.853 9.685-2.731 14.208-1.835 4.523-4.565 8.619-8.021 12.117-3.499 3.456-7.637 6.229-12.203 8.149s-9.472 2.944-14.421 2.987h-151.68c-15.232 0.085-29.952 5.291-41.728 14.763-11.819 9.429-19.925 22.571-22.997 37.205l-8.704 37.035c-5.547 21.675-18.304 40.96-36.224 54.827s-40.021 21.547-62.848 21.803h-217.301c-23.168-0.427-45.525-8.448-63.531-22.784-17.963-14.379-30.464-34.219-35.541-56.405l-8.235-34.475c-2.944-14.379-10.795-27.349-22.229-36.779-11.477-9.429-25.856-14.805-40.789-15.189h-152.107c-4.949-0.043-9.856-1.067-14.421-2.987s-8.704-4.693-12.203-8.149c-3.456-3.499-6.187-7.595-8.021-12.117-1.877-4.523-2.773-9.344-2.731-14.208v-19.584c0-9.813 3.925-19.2 10.88-26.197 6.997-6.997 16.512-10.965 26.496-11.392h863.915c9.984 0.427 19.499 4.395 26.496 11.392 6.955 6.997 10.88 16.384 10.88 26.197v19.584z" />
<glyph unicode="&#xe91a;" glyph-name="icon-browse" d="M991.147 605.867c-4.267 0-8.533-0.853-12.373-2.56-4.267-1.707-7.68-4.267-10.667-7.253s-5.547-6.4-7.253-10.667c-1.707-3.84-2.56-8.107-2.56-12.373v-493.653c0-8.96-3.413-17.067-9.387-23.040-5.973-6.4-14.080-9.813-23.040-9.813h-827.904c-8.704 0-17.024 3.413-23.168 9.387-6.187 6.4-9.6 14.507-9.6 23.467v493.653c0 8.533-3.413 17.067-9.472 23.040s-14.293 9.813-22.955 9.813c-4.267 0-8.533-0.853-12.544-2.56-3.968-1.707-7.595-4.267-10.624-7.253s-5.461-6.4-7.125-10.667c-1.621-3.84-2.475-8.107-2.475-12.373v-493.653c0-26.027 10.325-51.2 28.672-69.547 18.389-18.347 43.307-28.587 69.291-28.587h827.904c26.027 0 51.2 10.24 69.547 28.587s28.587 43.52 28.587 69.547v493.653c0 4.267-0.853 8.533-2.56 12.373-1.707 4.267-3.84 7.68-7.253 10.667-2.987 2.987-6.4 5.547-10.24 7.253-4.267 1.707-8.533 2.56-12.8 2.56zM229.12 130.134h217.088c12.928 0 25.728 2.56 37.675 7.253 11.904 5.12 22.741 12.373 31.957 21.333 8.96 9.387 16.213 20.053 21.333 32 4.693 11.947 7.253 24.747 7.253 37.547v217.6c0 26.027-10.24 50.773-28.587 69.12-18.645 18.347-43.605 29.013-69.632 29.013h-217.088c-26.027 0-50.987-10.667-69.419-29.013s-28.843-43.093-28.971-69.12v-217.6c0-26.027 10.368-51.2 28.843-69.547 18.432-18.347 43.435-28.587 69.547-28.587zM195.925 445.867c0.085 8.533 3.627 17.067 9.856 23.040 6.229 6.4 14.592 9.813 23.339 9.813h217.088c8.747 0 17.152-3.413 23.339-9.813 6.229-5.973 9.771-14.507 9.856-23.040v-217.6c-0.085-8.533-3.627-17.067-9.856-23.040-6.187-6.4-14.592-9.813-23.339-9.813h-217.088c-8.747 0-17.109 3.413-23.339 9.813-6.229 5.973-9.771 14.507-9.856 23.040v217.6zM642.56 478.72h218.027c4.267 0 8.533 0.853 12.8 2.56 3.84 1.707 7.68 4.267 10.667 7.253s5.547 6.827 6.827 11.093c1.707 3.84 2.56 8.107 2.56 12.8-0.427 8.533-3.84 16.64-9.813 22.613-6.4 6.4-14.507 9.387-23.040 9.387h-218.027c-8.533 0-16.64-3.413-23.040-9.387-5.973-5.973-9.387-14.080-9.387-22.613 0-4.693 0.853-8.96 2.133-12.8 1.707-4.267 4.267-7.68 7.253-11.093 2.987-2.987 6.4-5.547 10.24-7.253 4.267-1.707 8.533-2.56 12.8-2.56zM642.56 337.067h218.027c8.533 0 16.64 3.413 23.040 9.387 5.973 5.973 9.387 14.507 9.813 23.040 0 4.267-0.853 8.533-2.56 12.373-1.707 4.267-4.267 7.68-7.253 10.667s-6.827 5.547-10.667 7.253c-3.84 1.707-8.107 2.56-12.373 2.56h-218.027c-8.533 0-17.067-3.84-23.040-9.813s-9.387-14.507-9.387-23.040c0-4.267 0.853-8.533 2.56-12.373s3.84-7.68 6.827-10.667c2.987-2.987 6.827-5.12 10.667-6.827s8.107-2.56 12.373-2.56zM949.333 872.107h-882.944c-16.981 0-33.237-6.741-45.269-18.731-11.989-11.989-18.731-28.288-18.731-45.227v-103.595c0-16.768 6.741-33.408 18.731-45.355 12.032-11.947 28.288-18.773 45.269-18.773h882.944c16.64 0.427 32.853 7.253 44.8 19.2s18.773 28.16 18.773 44.928v103.595c0 16.896-6.827 33.109-18.773 45.099-11.947 11.947-28.16 18.773-44.8 18.859zM596.907 716.587h-471.339c-10.923 0-21.419 4.309-29.141 12.032s-12.075 18.219-12.075 29.141c0 10.923 4.352 21.376 12.075 29.099s18.219 12.075 29.141 12.075h471.339c11.093 0 21.333-4.352 29.013-12.075 8.107-7.723 12.373-18.176 12.373-29.099s-4.267-21.419-12.373-29.141c-7.68-7.723-17.92-12.032-29.013-12.032zM756.907 716.587c-8.107 0-15.787 2.347-22.187 6.699-6.4 4.395-11.52 10.667-14.933 17.963-2.987 7.296-3.84 15.36-2.133 23.125 1.707 7.723 5.547 14.848 11.093 20.437s12.8 9.429 20.48 10.965c7.68 1.536 15.787 0.725 23.040-2.304 7.253-2.987 13.653-8.149 17.92-14.72s6.827-14.293 6.827-22.187c0.427-10.411-3.413-20.608-10.24-28.373s-16.64-12.501-26.88-13.227l-2.987 1.621zM887.467 712.15c-8.107 0-15.787 2.347-22.613 6.741-6.4 4.395-11.52 10.667-14.507 17.963s-3.84 15.36-2.133 23.083c1.28 7.765 5.12 14.891 10.667 20.48s12.8 9.429 20.48 10.965c7.68 1.536 15.787 0.725 23.040-2.304s13.653-8.149 17.92-14.72c4.693-6.571 6.827-14.293 6.827-22.187 0-10.624-4.267-20.779-11.52-28.288-7.68-7.509-17.92-11.733-28.16-11.733z" />
<glyph unicode="&#xe91b;" glyph-name="icon-copy" d="M636.288-84.906h-372.139c-20.693 0-41.173 4.267-60.288 12.373-19.072 7.68-36.437 19.627-50.987 34.133-14.592 14.507-26.112 32-33.963 51.2-7.808 19.2-11.776 39.68-11.691 60.587v574.72c-0.085 20.907 3.883 41.387 11.691 60.587 7.851 19.2 19.371 36.693 33.963 51.2 14.549 14.507 31.915 26.453 50.987 34.56 19.115 7.68 39.595 11.947 60.288 11.947h372.139c20.693 0 41.216-4.267 60.373-11.947 19.157-8.107 36.523-19.627 51.157-34.56 14.592-14.507 26.155-32 34.048-51.2 7.851-19.2 11.819-39.68 11.733-60.587v-574.72c0.085-20.907-3.883-41.387-11.733-60.587-7.893-19.2-19.456-36.693-34.048-51.2-14.635-14.933-32-26.453-51.157-34.56-19.157-7.68-39.68-11.947-60.373-11.947zM264.149 736.427c-11.563 0-22.997-2.133-33.621-6.4-10.667-4.693-20.309-11.093-28.416-19.2-8.107-8.533-14.507-18.347-18.773-29.013-4.309-10.667-6.443-22.187-6.272-33.707v-574.72c0-23.040 9.173-45.227 25.472-61.867 16.341-16.213 38.485-25.173 61.611-25.173h372.139c23.125 0 45.312 8.96 61.696 25.173 16.384 16.64 25.685 38.4 25.771 61.867v574.72c0.128 11.947-2.091 23.040-6.4 33.707-4.352 11.093-10.795 20.48-18.944 29.013-8.107 8.107-17.792 14.507-28.459 19.2-10.667 4.267-22.144 6.4-33.664 6.4h-372.139zM881.877 334.507c-9.259 0-18.133 3.84-24.661 10.24-6.571 6.4-10.24 15.36-10.24 24.747v401.92c-0.085 25.6-10.368 50.347-28.544 68.267-18.176 18.347-42.752 28.16-68.395 28.16h-312.149c-9.259 0-18.133 3.84-24.704 10.24-6.528 6.827-10.24 15.787-10.24 24.747 0 9.387 3.712 18.347 10.24 24.747 6.571 6.4 15.445 10.24 24.704 10.24h312.149c44.16 0 86.528-17.493 117.803-48.64 31.232-31.147 48.853-73.387 48.981-117.76v-401.92c0-4.693-0.896-9.387-2.688-13.653-1.749-4.267-4.309-8.107-7.552-11.093-3.243-3.413-7.083-5.973-11.307-7.68-4.267-1.707-8.789-2.56-13.397-2.56z" />
<glyph unicode="&#xe91c;" glyph-name="icon-download" d="M486.827 139.094c6.827-6.827 15.787-10.667 25.173-11.093 4.267 0 8.107 0.853 11.947 2.56 3.84 1.28 7.253 3.84 10.24 7.253l207.36 209.493c3.413 3.84 6.4 8.107 8.533 13.227 1.707 4.693 2.56 10.24 2.56 15.36 0 3.84-0.853 7.68-2.56 11.52-1.707 3.413-4.267 6.4-7.253 8.96-8.96 7.253-19.627 11.093-30.72 11.52-3.84 0-7.68-0.427-11.093-2.133-3.413-1.28-6.4-3.413-8.533-6.4l-144.213-145.493v648.96c-0.427 9.173-3.84 17.92-10.24 24.533-6.4 6.656-14.933 10.667-23.893 11.307-9.387-0.213-18.347-4.053-25.173-10.752-6.827-6.656-10.667-15.659-10.667-25.088v-648.96l-142.507 143.787c-3.413 3.84-7.68 6.827-12.373 8.96-4.693 1.707-9.387 2.987-14.507 2.987-4.267 0-8.533-0.853-12.373-2.56s-7.253-4.267-9.813-7.68c-6.827-8.533-10.667-18.773-11.093-29.44-0.427-3.84 0-8.107 1.28-11.52 1.707-3.84 3.84-7.253 6.827-9.813l203.093-209.493zM1023.573 431.787c0.853 3.413 0.427 6.827-0.427 10.24-1.28 3.413-2.987 6.4-5.547 8.96-3.413 4.267-8.107 7.68-13.227 9.813-5.12 2.56-10.24 3.84-16.213 3.84-9.387-0.427-18.347-4.267-24.747-10.667-6.827-6.827-10.667-15.787-11.093-25.173v-442.453h-881.067v440.32c-0.427 9.387-4.267 18.347-10.667 25.173-6.827 6.4-15.787 10.24-25.173 10.667-9.387-0.427-18.347-4.267-24.747-11.093-6.827-6.4-10.24-15.36-10.667-24.747v-439.893c0-9.387 1.707-18.773 5.12-27.307 3.84-8.96 8.96-16.64 15.36-23.467 6.827-6.827 14.507-11.947 23.467-15.787 8.533-3.413 17.92-5.547 27.307-5.547h880.64c9.813 0 19.2 1.707 27.733 5.547 8.533 3.413 16.64 8.96 23.467 15.787 6.4 6.4 11.947 14.507 15.36 23.040 3.413 8.96 5.547 18.347 5.12 27.733v445.013z" />
<glyph unicode="&#xe91d;" glyph-name="icon-edit" d="M978.347 849.451l-42.667 42.667c-14.507 14.72-31.573 26.411-50.773 34.432-19.2 7.979-39.68 12.075-60.16 12.075-20.907 0-41.387-4.096-60.587-12.075-18.773-8.021-36.267-19.712-50.773-34.432l-622.507-622.933c-3.413-3.84-5.547-8.107-6.827-13.227l-82.347-298.24c-1.707-5.547-2.133-11.52-0.853-17.493 0.853-5.973 3.84-11.093 7.68-15.787 3.413-3.413 8.107-6.4 12.8-8.107 4.693-1.28 10.24-2.133 15.36-1.28h7.253l293.12 81.067 7.68 4.267c3.413 0 5.547 0 7.253 3.84l106.667 106.667c3.413 3.413 6.4 7.253 8.533 11.947 1.707 4.267 2.56 9.387 2.56 14.080 0 5.12-0.853 9.813-2.56 14.507-2.133 4.693-4.693 8.533-8.533 11.947-2.987 2.987-6.827 5.547-10.667 7.253-4.267 1.707-8.533 2.56-12.8 2.56s-8.533-0.853-12.8-2.56c-3.84-1.707-7.68-4.267-10.667-7.253l-81.92-81.493-164.693 165.12 511.147 512 165.12-165.547-328.533-328.533c-3.84-3.413-6.827-7.253-8.533-11.947-2.133-4.693-2.987-9.387-2.56-14.507-0.427-5.12 0.853-10.24 2.987-14.933 1.707-4.693 5.12-8.533 8.96-11.947 5.973-4.267 13.227-6.827 20.907-6.827 9.813 0.427 19.2 4.693 26.453 11.947l412.16 413.867c15.787 13.653 28.16 30.293 36.693 49.067 8.96 19.029 13.653 39.424 14.080 60.16 0.427 20.48-3.413 40.832-11.093 59.733s-19.627 35.883-34.56 49.92zM930.133 678.784l-37.973-38.4-161.28 162.56-5.12 3.413 37.547 37.973c16.64 15.403 38.4 23.936 61.44 23.936 22.613 0 44.373-8.533 61.013-23.936l42.667-42.667c15.787-16.427 24.747-38.187 24.747-60.885 0.427-22.699-7.68-44.715-23.040-61.568v-0.427zM267.947 48.171l-181.333-52.053 51.627 180.053 129.707-128z" />
<glyph unicode="&#xe91e;" glyph-name="icon-eye-on" d="M2.56 439.254c-3.413-8.107-3.413-17.493 0-26.027 107.093-244.907 298.496-391.68 509.227-391.68 127.189 2.133 248.576 52.907 338.475 142.507 6.229 5.973 9.899 14.080 10.325 23.040-0.043 8.533-3.413 17.067-9.472 23.467-3.072 2.987-6.827 5.547-10.965 7.253-4.139 2.133-8.619 2.987-13.141 2.987-8.619 0-16.896-3.413-23.211-8.96-77.269-77.653-182.101-122.453-292.011-124.16-179.371 0-344.064 125.867-440.832 337.067 96.768 213.333 261.461 337.536 440.832 337.536 179.328 0 344.064-128.043 440.832-337.536-9.899-21.76-20.651-42.667-32.256-63.147-2.176-3.413-3.584-7.68-4.096-11.947s-0.171-8.96 1.067-13.227c1.109-3.84 3.072-8.107 5.717-11.52 2.688-3.413 5.973-5.973 9.771-8.533 5.205-2.56 10.965-3.84 16.768-3.84 5.888 0 11.648 1.707 16.725 4.693s9.259 7.253 12.117 11.947c16.043 27.733 30.421 56.32 43.008 85.333 1.664 4.267 2.56 8.533 2.56 12.8 0 4.693-0.896 8.96-2.56 12.8-107.52 244.907-298.069 391.68-509.653 391.68-210.731 0-402.133-146.773-509.227-392.533zM445.099 316.374c-4.693 2.56-9.813 3.413-15.019 3.413-5.76 0-11.435-1.28-16.469-3.84-5.035-2.987-9.301-6.827-12.373-11.947-2.304-3.413-3.797-7.68-4.48-11.947s-0.469-8.96 0.64-12.8c1.024-4.267 2.944-8.533 5.632-11.947 2.645-3.413 6.016-6.4 9.813-8.107 30.507-18.347 65.451-28.16 101.077-27.733 38.485 0.427 75.947 12.373 107.648 34.133s56.235 52.053 70.571 87.467c14.293 35.413 17.749 74.24 9.941 111.787-7.851 37.12-26.624 71.68-53.973 98.56-27.392 26.88-62.123 44.8-99.925 52.48-37.76 7.253-76.885 3.413-112.469-11.093-35.584-14.933-66.005-39.253-87.552-71.253-21.504-31.573-33.109-68.693-33.365-107.093 0-8.533 3.541-17.067 9.813-23.467 6.315-5.973 14.848-9.813 23.723-9.813 8.917 0 17.451 3.84 23.723 9.813 6.315 6.4 9.856 14.933 9.856 23.467 0 28.587 9.387 55.893 26.752 78.080 17.365 22.613 41.685 38.4 69.205 45.653s56.661 5.547 82.944-5.547c26.24-11.093 48.128-30.293 62.208-54.613 14.080-24.747 19.627-52.907 15.701-81.067-3.925-27.733-17.067-53.76-37.376-73.387-20.267-20.053-46.635-32.427-74.88-35.84s-56.875 2.56-81.365 16.64z" />
<glyph unicode="&#xe91f;" glyph-name="icon-eye-off" d="M706.56 392.192c1.323 8.533-0.512 17.493-5.163 24.747-5.205 7.253-13.056 11.947-21.888 13.653h-6.016c-7.723 0-15.232-2.56-21.205-7.68s-9.984-11.947-11.392-19.627c-5.163-25.173-17.877-48.64-36.523-66.56-18.603-18.347-42.24-30.293-67.797-34.56-8.661-1.707-16.341-6.4-21.461-13.653-2.517-3.413-4.224-7.68-5.12-11.947s-0.896-8.533-0.043-12.8c1.408-7.253 5.461-14.507 11.392-19.2 5.973-5.12 13.483-7.68 21.248-7.68h6.016c38.955 6.827 74.923 25.173 103.125 53.333 28.203 27.733 47.317 63.147 54.827 101.973zM737.92 694.059l-5.589-5.76-105.6-103.68h-2.987c-32.725 21.76-71.083 33.28-110.336 33.28-51.371 0.427-100.779-19.2-137.6-55.040-36.779-35.84-57.984-84.907-59.008-136.107-0.085-38.827 11.733-76.8 33.92-108.8l2.133-2.987-2.56-2.56-267.435-263.68c-3.115-2.987-5.589-6.4-7.253-10.24-1.707-3.84-2.56-8.107-2.56-12.8 0-4.267 0.853-8.533 2.56-12.373 1.664-3.84 4.139-7.253 7.253-10.24 3.029-3.413 6.699-5.973 10.752-7.68 4.096-1.707 8.448-2.56 12.843-2.133 4.523-0.427 9.045 0 13.355 1.707 4.267 1.28 8.192 3.84 11.563 6.827l815.616 801.28c3.157 2.987 5.675 6.571 7.339 10.581 1.707 3.968 2.56 8.277 2.517 12.629-0.043 4.309-0.896 8.576-2.603 12.587-1.707 3.968-4.181 7.552-7.253 10.581-3.371 3.669-7.509 6.528-12.117 8.363-4.608 1.877-9.557 2.688-14.507 2.389-8.789-0.043-17.237-3.413-23.595-9.472l-108.629-107.307h-5.163c-83.627 58.453-183.936 88.277-285.952 84.949-101.973-3.328-200.149-39.595-279.808-103.424-94.080-75.904-167.851-174.037-214.656-285.397-1.664-4.267-2.56-8.533-2.56-12.8 0-4.693 0.896-8.96 2.56-12.8 23.253-54.187 52.053-105.387 85.888-153.173 5.291-6.827 13.099-11.52 21.845-13.227 8.704-1.28 17.621 0.853 24.917 5.547 3.627 2.56 6.656 5.973 9.045 9.387 2.347 3.84 3.925 7.68 4.693 12.373 0.683 3.84 0.469 8.107-0.555 12.373s-2.901 8.107-5.461 11.52c-28.117 39.68-52.437 81.92-72.533 126.293 42.24 96.853 107.349 182.187 189.739 248.32 71.765 57.643 160.853 89.259 252.843 89.813 77.909-0.853 153.984-23.765 219.349-66.133l5.589-2.987zM573.952 532.566l-172.587-169.813-2.56 5.12c-10.069 17.92-15.403 37.973-15.445 58.88 0.085 22.187 5.931 43.947 16.939 63.147 11.051 19.2 26.88 35.413 45.952 46.933 19.115 11.093 40.832 17.493 63.061 17.92s44.203-4.693 63.787-15.36l5.12-2.56-4.267-4.267zM1021.653 439.552c-25.643 59.307-58.197 115.2-97.024 166.4-3.157 4.267-7.253 7.68-11.947 9.813-4.693 2.56-9.856 3.84-15.104 3.413-7.168 0.427-14.208-2.133-19.755-6.827-3.541-2.56-6.528-5.547-8.832-9.387-2.304-3.413-3.797-7.68-4.48-11.947-0.853-8.533 1.408-17.493 6.443-24.32 32.555-43.093 60.203-89.173 82.432-138.24-97.024-214.187-261.419-340.907-440.021-340.907-40.832 0-81.408 6.4-120.192 19.2-3.371 0.853-6.869 0.853-10.283 0-6.997 0-13.824-2.133-19.499-5.973-5.717-3.84-10.027-9.813-12.288-16.213-1.664-3.84-2.56-8.107-2.56-12.373s0.896-8.533 2.56-12.8c1.963-3.84 4.651-7.253 7.979-10.24 3.328-2.56 7.168-5.12 11.349-6.4 45.568-14.933 93.269-22.613 141.227-22.613 210.773 0 400.939 146.347 508.288 390.827 2.304 4.693 3.712 9.387 3.968 14.080 0.299 5.12-0.469 9.813-2.261 14.507z" />
<glyph unicode="&#xe920;" glyph-name="icon-filter" d="M39.253 739.712h98.987l2.987-8.917c8.533-23.168 24.32-43.051 44.8-57.045 20.48-13.653 44.8-20.48 69.547-20.053 23.893 0.853 47.36 8.533 66.987 22.187 19.2 13.995 34.56 33.365 43.093 55.765l3.413 8.064h616.533c5.12-0.555 9.813-0.085 14.507 1.408s8.96 3.883 12.373 7.125c3.84 3.243 6.4 7.168 8.533 11.605s2.987 9.216 2.987 14.037c0 4.864-0.853 9.643-2.987 14.037-2.133 4.437-4.693 8.405-8.533 11.605-3.413 3.243-7.68 5.675-12.373 7.125-4.693 1.493-9.387 1.963-14.507 1.451h-616.96l-2.987 8.917c-8.533 22.485-23.467 41.899-43.093 55.68-19.627 13.739-43.093 21.12-66.987 21.205-24.747 0.213-49.067-7.125-69.547-20.992-20.48-13.909-36.267-33.664-45.227-56.747l-2.987-7.211h-98.56c-4.693 0.512-9.813 0.043-14.080-1.451-4.693-1.451-8.96-3.883-12.8-7.125-3.413-3.2-6.4-7.168-8.107-11.605-2.133-4.395-2.987-9.173-2.987-14.037 0-4.821 0.853-9.643 2.987-14.037 1.707-4.437 4.693-8.363 8.107-11.605 3.84-3.243 8.107-5.675 12.8-7.125 4.267-1.493 9.387-1.963 14.080-1.408v-0.853zM201.813 769.878c0 14.421 5.547 28.331 15.787 38.699 9.813 10.411 23.467 16.469 37.973 16.939 13.227-0.555 25.6-6.229 34.987-15.787 8.96-9.6 14.080-22.357 14.080-35.627 0.427-13.739-4.693-27.051-13.653-37.333-8.96-10.325-21.76-16.811-35.413-18.304-6.827-0.299-14.080 0.811-20.48 3.285-6.4 2.432-12.373 6.187-17.493 11.008-4.693 4.779-8.96 10.539-11.52 16.939-2.56 6.357-4.267 13.227-4.267 20.181zM985.6 461.27h-98.987l-2.987 8.533c-8.107 23.040-23.467 42.667-43.52 56.32-20.053 14.080-43.947 20.907-68.267 20.907-24.32-0.427-48.213-7.68-68.267-21.76s-35.413-33.28-43.947-56.32l-3.413-7.68h-616.96c-8.96 0-17.92-3.413-24.32-9.813s-10.24-15.36-10.24-24.32c0-9.387 3.84-17.92 10.24-24.32s15.36-10.24 24.32-10.24h617.387l2.987-8.96c8.533-22.613 23.893-42.24 43.947-56.32 20.053-13.653 43.947-20.907 68.267-20.48 24.32 0 47.787 7.68 67.84 21.333s35.84 33.28 44.373 55.893l2.987 7.68h98.56c9.387 0 17.92 3.84 24.32 10.24 6.827 6.4 10.24 14.933 10.24 24.32 0 8.96-3.413 17.92-10.24 24.32-6.4 6.4-14.933 9.813-24.32 9.813v0.853zM823.040 426.71c0-10.24-2.987-20.053-8.533-28.587s-13.653-14.933-23.040-19.2c-9.387-3.84-20.053-4.693-29.867-2.56-9.813 1.707-19.2 6.827-26.453 14.080-6.827 6.827-11.947 16.213-14.080 26.027-1.707 10.24-0.853 20.48 2.987 29.867s10.667 17.493 19.2 23.040c8.107 5.547 18.347 8.533 28.587 8.533 6.4 0 13.227-1.28 19.627-3.84 5.973-2.56 11.947-6.4 16.64-11.093s8.533-10.667 11.093-16.64c2.56-6.4 3.84-12.8 3.84-19.627zM985.6 114.39h-445.867l-2.987 8.533c-8.533 22.613-23.467 42.24-43.52 55.893-20.053 14.080-43.52 21.333-67.84 20.907-24.32 0-48.213-7.68-67.84-21.333-20.053-14.080-35.413-33.707-44.373-56.32l-3.413-7.68h-274.773c-9.387 0-18.347-3.84-24.747-10.24s-10.24-15.36-10.24-24.747c0-9.387 3.84-18.347 10.24-24.747 6.4-6.827 15.36-10.24 24.747-10.24h274.773l2.987-8.533c8.533-23.040 23.893-42.667 44.373-56.32 20.053-13.653 43.947-20.907 68.267-20.053 24.32 0 48.213 7.253 68.267 21.333 20.053 13.653 35.413 33.28 44.373 56.32l3.413 7.68h444.16c9.387 0 17.92 3.413 24.32 9.813 6.827 6.4 10.24 15.36 10.24 24.32 0 9.387-3.413 17.92-10.24 24.32-6.4 6.4-14.933 10.24-24.32 10.24v0.853zM480.427 84.096c0-10.24-2.987-20.053-8.96-28.587-5.547-8.107-13.653-14.933-23.040-18.773s-19.627-5.12-29.44-2.987c-10.24 2.133-19.2 6.827-26.453 14.080s-11.947 16.213-14.080 26.453c-2.133 9.813-0.853 20.053 2.987 29.44s10.24 17.493 18.773 23.040c8.533 5.973 18.347 8.96 28.587 8.96 13.653 0 26.88-5.547 36.267-15.36 9.813-9.387 15.36-22.613 15.36-36.267z" />
<glyph unicode="&#xe921;" glyph-name="icon-flag" d="M1022.293 454.827c-1.28 6.4-3.84 12.373-7.68 17.067-4.267 5.12-8.96 9.387-14.933 11.947-58.027 28.587-111.787 64.427-160 107.52 24.747 96.597 43.52 194.773 55.467 293.845 2.56 9.941 1.28 20.395-3.413 29.568-4.267 9.173-11.947 16.512-21.333 20.779-8.533 2.944-17.92 3.029-26.453 0.213s-16.213-8.32-21.333-15.744c-84.053-100.736-203.093-88.96-328.96-76.373s-247.893 24.747-349.44-62.123c-5.547 9.984-14.080 18.475-23.893 24.747-8.107 5.291-17.493 8.747-27.307 10.197s-19.627 0.811-29.013-1.792l-10.667-2.517c-18.773-5.632-34.987-18.517-44.373-35.797s-11.52-37.632-5.973-56.533l115.2-429.696c2.56-8.107 7.68-14.933 14.933-19.2 3.413-2.133 7.68-3.413 11.52-3.84 4.267-0.853 8.533-0.427 12.373 0.853 3.84 0.853 7.68 2.56 11.093 5.12 2.987 2.56 5.973 5.973 8.107 9.387s3.413 7.68 3.84 11.52c0.427 4.267 0.427 8.533-0.853 12.373l-115.627 429.867c-1.28 2.816-0.853 5.931 0 8.704 1.28 2.773 3.413 5.035 5.973 6.4l10.667 2.944c2.133 0.683 4.693 0.683 6.827 0 2.987-2.091 5.12-5.205 5.973-8.832l200.96-746.283c1.28-3.413 1.28-7.253 0-10.667-1.28-2.133-2.987-3.413-5.12-4.267l-11.093-2.987c-2.987-0.427-5.973 0.427-8.533 2.56-2.133 1.707-3.84 4.267-4.267 7.253l-55.040 204.8c-2.133 8.107-7.68 14.933-14.933 19.2s-15.787 5.547-23.893 3.413c-8.107-2.56-14.933-7.68-18.773-14.933-4.267-7.253-5.547-15.787-3.413-23.893l54.613-206.933c3.84-16.213 13.227-30.293 26.027-40.96 13.227-10.24 29.013-15.787 45.653-16.213 6.4 0.853 12.8 2.133 18.773 4.693l10.667 2.987c9.387 2.56 18.347 7.253 26.027 13.227 7.68 6.4 13.653 14.080 18.347 23.040 8.533 17.067 10.667 36.693 5.547 55.040l-57.173 209.92c84.053 94.293 200.96 84.053 324.267 70.827 137.387-14.080 279.040-27.733 386.133 100.267 6.827 8.107 11.52 17.493 14.080 28.16 2.56 10.24 2.987 20.907 0.427 31.147zM629.76 363.094c-122.453 11.947-248.32 24.32-350.293-63.147l-111.36 411.904c83.627 89.387 198.4 78.080 320 66.304 121.6-11.733 236.373-23.509 335.787 51.2-11.947-77.696-28.16-154.795-48.213-230.741-2.56-8.96-2.56-17.92 0-26.88 2.56-8.533 7.68-16.213 14.080-22.187 49.493-44.8 104.107-83.627 162.56-115.2-84.053-95.573-200.533-84.053-322.56-71.253z" />
<glyph unicode="&#xe922;" glyph-name="icon-heart-empty" d="M948.48 793.6c-26.368 31.147-59.648 55.040-97.152 70.827s-78.165 22.613-118.741 19.627c-40.533-2.987-79.829-15.36-114.645-36.693-34.859-20.907-64.256-49.493-85.888-84.053-7.211-10.24-13.909-20.907-20.053-32-6.144 11.093-12.843 21.76-20.053 32-21.632 34.56-51.029 63.147-85.888 84.053-34.816 21.333-74.112 33.707-114.645 36.693s-81.237-3.84-118.741-19.627c-37.504-15.787-70.784-39.68-97.152-70.827-49.707-58.88-76.501-133.547-75.52-210.347 2.389-95.147 39.765-186.453 104.96-256 17.067-20.48 36.267-42.667 57.173-62.72 3.328-3.413 7.296-5.973 11.648-7.68 4.352-2.133 9.003-2.987 13.739-2.987s9.387 0.853 13.739 2.987c4.352 1.707 8.32 4.267 11.648 7.68h0.427c6.784 6.827 10.624 16.213 10.624 26.027 0 9.387-3.84 18.773-10.624 25.6-88.32 90.027-140.373 170.667-140.373 264.533-2.304 59.733 17.28 118.187 55.040 164.693 18.176 20.907 40.704 37.973 66.048 49.493 25.387 11.093 52.907 17.067 80.725 16.64 31.872-0.853 63.019-9.387 90.709-25.173s51.072-38.4 68.011-65.28c18.389-27.733 32.768-58.027 42.667-89.6 2.304-7.253 6.869-13.653 13.013-17.92 6.144-4.693 13.525-6.827 21.12-6.827s14.976 2.133 21.12 6.827c6.144 4.267 10.709 10.667 13.013 17.92 9.899 31.573 24.277 61.867 42.667 89.6 16.939 26.88 40.32 49.493 68.011 65.28s58.837 24.32 90.709 25.173c28.373 0.853 56.576-4.693 82.56-16.213s49.109-28.587 67.627-49.92c37.973-45.227 58.24-102.827 57.173-162.133 0-151.040-134.827-267.52-338.773-443.733l-2.56-2.133c-31.573-27.307-64.427-55.467-98.56-85.333l-101.12 87.893-54.187 45.653c-6.827 5.973-15.701 8.96-24.747 8.533s-17.579-4.267-23.893-10.667c-3.627-3.413-6.528-7.68-8.491-11.947-1.963-4.693-2.987-9.813-2.987-14.507 0-5.12 1.024-10.24 2.987-14.933 1.963-4.267 4.864-8.533 8.491-11.947l54.187-46.933 121.6-105.813c6.613-5.973 15.104-8.96 23.893-8.96 8.661 0 17.067 2.987 23.467 8.96 42.667 38.4 85.333 72.96 123.307 106.667 93.909 75.093 181.888 157.44 263.253 245.76 64.64 69.12 101.931 159.147 104.96 253.44 1.024 76.8-25.813 151.467-75.52 210.347z" />
<glyph unicode="&#xe923;" glyph-name="icon-heart-solid" d="M948.48 794.88c-26.368 31.147-59.648 55.040-97.152 70.827s-78.165 22.613-118.741 19.627c-40.533-2.987-79.829-15.36-114.645-36.693-34.859-20.907-64.256-49.493-85.888-84.053-7.211-10.24-13.909-20.907-20.053-32-6.144 11.093-12.843 21.76-20.053 32-21.632 34.56-51.029 63.147-85.888 84.053-34.816 21.333-74.112 33.707-114.645 36.693s-81.237-3.84-118.741-19.627c-37.504-15.787-70.784-39.68-97.152-70.827-49.707-58.88-76.501-133.547-75.52-210.347 2.389-95.147 39.765-186.453 104.96-256 80.256-88.747 167.253-171.093 260.267-246.187l121.6-105.813c6.613-5.973 15.104-8.96 23.893-8.96 8.661 0 17.067 2.987 23.467 8.96 42.667 38.4 85.333 72.96 123.307 106.667 93.397 75.947 180.821 158.72 261.547 247.893 64.64 69.12 101.931 159.147 104.96 253.44 1.024 76.8-25.813 151.467-75.52 210.347z" />
<glyph unicode="&#xe924;" glyph-name="icon-list-items" d="M985.152 770.373h-954.711c-8.77-2.592-16.502-8.208-21.945-15.552-5.486-7.344-8.424-16.416-8.424-25.488 0-9.504 2.938-18.576 8.424-25.92 5.443-7.344 13.176-12.96 21.945-15.552h954.711c8.813 2.592 16.502 8.208 21.989 15.552s8.424 16.416 8.424 25.92c0 9.072-2.938 18.144-8.424 25.488s-13.176 12.96-21.989 15.552zM466.757 467.976h-436.316c-8.77-2.592-16.502-8.208-21.945-15.552-5.486-7.344-8.424-16.416-8.424-25.488 0-9.504 2.938-18.576 8.424-25.92 5.443-7.344 13.176-12.96 21.945-15.552h436.316c8.813 2.592 16.502 8.208 21.989 15.552s8.424 16.416 8.424 25.92c0 9.072-2.938 18.144-8.424 25.488s-13.176 12.96-21.989 15.552zM293.958 165.579h-263.517c-8.77-2.592-16.502-8.208-21.945-15.552-5.486-7.344-8.424-16.416-8.424-25.488 0-9.504 2.938-18.576 8.424-25.92 5.443-7.344 13.176-12.96 21.945-15.552h263.517c8.813 2.592 16.502 8.208 21.989 15.552s8.424 16.416 8.424 25.92c0 9.072-2.938 18.144-8.424 25.488s-13.176 12.96-21.989 15.552zM987.312 588.503c-24.062 22.896-55.987 35.424-89.207 35.424-33.177 0-65.102-12.528-89.207-35.424l-259.197-259.197c-3.758-3.888-6.566-8.64-8.208-13.824l-53.999-193.102c-1.382-5.184-1.339-10.8 0.086-15.984 1.469-5.184 4.234-9.936 8.122-13.824 2.808-3.024 6.178-5.184 9.893-6.912 3.715-1.296 7.69-2.16 11.707-2.16 3.024-0.432 6.091-0.432 9.072 0l187.054 57.023c4.968 1.296 9.461 3.888 12.96 7.776l66.527 66.527c2.29 2.592 3.542 5.616 3.542 9.072s-1.253 6.48-3.542 9.072l-25.488 25.056c-1.166 1.296-2.549 2.16-4.104 3.024-1.555 0.432-3.24 0.864-4.968 0.864-1.685 0-3.37-0.432-4.968-0.864-1.555-0.864-2.938-1.728-4.104-3.024l-60.911-60.911-126.143-38.016 35.856 129.599 190.078 190.51 90.719-91.151-68.687-69.119c-1.21-1.296-2.203-2.592-2.851-4.32-0.691-1.296-1.037-3.024-1.037-4.752s0.346-3.456 1.037-4.752c0.648-1.728 1.642-3.024 2.851-4.32l25.488-25.488c2.419-2.592 5.702-3.888 9.072-3.888 3.413 0 6.61 1.728 9.072 3.888l133.487 133.919c23.544 23.76 36.763 55.727 36.763 88.991s-13.219 65.231-36.763 88.991v1.296zM962.256 499.512c0.086-17.28-6.61-33.696-18.576-45.792l-21.168-20.736-91.151 91.151 12.096 11.664 7.776 9.072c12.355 11.664 28.641 18.144 45.576 18.144s33.264-6.48 45.576-18.144c6.221-6.048 11.145-12.96 14.558-20.736s5.227-15.984 5.314-24.624z" />
<glyph unicode="&#xe925;" glyph-name="icon-list-large" d="M983.424 760.32h-684.8c-10.752 0-21.035-4.267-28.629-11.947-7.637-7.68-11.904-17.92-11.904-28.587s4.267-20.907 11.904-28.587c7.595-7.68 17.877-11.947 28.629-11.947h684.8c10.752 0 21.077 4.267 28.672 11.947s11.861 17.92 11.861 28.587c0 10.667-4.267 20.907-11.861 28.587s-17.92 11.947-28.672 11.947zM515.371 462.507h-216.747c-8.704-2.56-16.299-8.107-21.675-15.36-5.419-7.253-8.32-16.213-8.32-25.6 0-8.96 2.901-17.92 8.32-25.173 5.376-7.253 12.971-12.8 21.675-15.36h216.747c8.704 2.56 16.299 8.107 21.717 15.36 5.376 7.253 8.32 16.213 8.32 25.173 0 9.387-2.944 18.347-8.32 25.6-5.419 7.253-13.013 12.8-21.717 15.36zM387.371 164.267h-88.747c-10.752 0-21.035-4.267-28.629-11.947-7.637-7.68-11.904-17.92-11.904-28.587s4.267-20.907 11.904-28.587c7.595-7.68 17.877-11.947 28.629-11.947h88.747c10.752 0 21.077 4.267 28.672 11.947s11.861 17.92 11.861 28.587c0 10.667-4.267 20.907-11.861 28.587s-17.92 11.947-28.672 11.947zM148.864 511.147h-119.040c-3.925 0-7.893-0.427-11.563-2.133-3.669-1.28-6.997-3.413-9.813-6.4-2.773-2.56-4.992-5.973-6.443-9.813s-2.133-7.68-2.048-11.52v-119.040c-0.085-3.84 0.597-8.107 2.048-11.52 1.451-3.84 3.669-7.253 6.443-9.813 2.816-2.987 6.144-5.12 9.813-6.4 3.669-1.707 7.637-2.133 11.563-2.133h119.040c3.968 0 7.893 0.427 11.563 2.133 3.712 1.28 7.040 3.413 9.813 6.4 2.816 2.56 4.992 5.973 6.485 9.813 1.451 3.413 2.133 7.68 2.005 11.52v119.040c-1.152 7.68-4.693 14.507-10.069 19.627-5.333 5.547-12.288 8.96-19.797 10.24zM118.997 387.84h-63.573v64.427h63.573v-64.427zM148.864 793.6h-119.040c-3.925 0-7.893-0.427-11.563-2.133-3.669-1.28-6.997-3.413-9.813-6.4-2.773-2.56-4.992-5.973-6.443-9.813s-2.133-7.68-2.048-11.52v-119.040c-0.085-3.84 0.597-8.107 2.048-11.52 1.451-3.84 3.669-7.253 6.443-9.813 2.816-2.987 6.144-5.12 9.813-6.4 3.669-1.707 7.637-2.133 11.563-2.133h119.040c3.968 0 7.893 0.427 11.563 2.133 3.712 1.28 7.040 3.413 9.813 6.4 2.816 2.56 4.992 5.973 6.485 9.813 1.451 3.413 2.133 7.68 2.005 11.52v119.040c-1.152 7.68-4.693 14.507-10.069 19.627-5.333 5.547-12.288 8.96-19.797 10.24zM118.997 670.294h-63.573v63.573h63.573v-63.573zM148.864 238.934h-119.040c-3.925 0-7.893-0.427-11.563-2.133-3.669-1.28-6.997-3.413-9.813-6.4-2.773-2.56-4.992-5.973-6.443-9.813s-2.133-7.68-2.048-11.52v-119.467c-0.043-3.84 0.683-7.68 2.176-11.52 1.493-3.413 3.669-6.827 6.485-9.387 2.773-2.987 6.101-5.12 9.771-6.4 3.627-1.707 7.509-2.133 11.435-2.133h119.040c3.925 0 7.851 0.427 11.477 2.133 3.669 1.28 6.955 3.413 9.771 6.4 2.773 2.56 4.992 5.973 6.485 9.387 1.451 3.84 2.219 7.68 2.133 11.52v119.467c-1.152 7.68-4.693 14.507-10.069 19.627-5.333 5.547-12.288 8.96-19.797 10.24zM118.997 115.2h-63.573v64h63.573v-64zM987.691 560.64c-23.765 22.613-55.296 34.987-88.107 34.987-32.768 0-64.299-12.373-88.107-34.987l-256-256c-3.627-3.84-6.4-8.107-8.107-13.227l-52.48-189.867c-1.237-4.693-1.408-9.387-0.555-14.080 0.896-4.267 2.859-8.96 5.717-12.373 2.859-3.84 6.528-6.827 10.752-8.96s8.832-2.987 13.525-2.987c2.987-0.427 6.016-0.427 8.96 0l184.747 55.893c4.821 1.707 9.216 4.267 12.8 7.68l65.707 65.707c2.261 2.56 3.499 5.547 3.499 8.96s-1.237 6.4-3.499 8.96l-25.173 25.173c-1.152 1.28-2.517 2.133-4.053 2.987-1.536 0.427-3.2 0.853-4.907 0.853-1.664 0-3.328-0.427-4.907-0.853-1.536-0.853-2.901-1.707-4.053-2.987l-61.013-60.587-124.587-37.973 35.413 128 187.733 187.307 89.6-90.027-67.84-68.267c-1.195-1.28-2.176-2.56-2.816-4.267-0.683-1.28-1.024-2.987-1.024-4.693s0.341-3.413 1.024-4.693c0.64-1.707 1.621-2.987 2.816-4.267l25.173-24.747c1.152-1.28 2.517-2.133 4.053-2.987 1.579-0.427 3.243-0.853 4.907-0.853 1.707 0 3.371 0.427 4.907 0.853 1.536 0.853 2.901 1.707 4.053 2.987l131.84 131.84c23.296 23.467 36.352 55.040 36.352 87.893 0 33.28-13.056 64.853-36.352 88.32v1.28zM962.944 472.32c-0.427-16.213-6.997-31.147-18.347-42.667l-20.907-20.907-90.027 86.187 11.947 11.52 7.68 11.093c12.203 11.52 28.288 17.92 45.013 17.92s32.853-6.4 45.013-17.92c6.144-5.973 11.008-12.8 14.379-20.48 3.371-8.107 5.163-16.213 5.248-24.747z" />
<glyph unicode="&#xe926;" glyph-name="icon-list-remove" d="M985.088 771.414h-954.709c-8.789-2.56-16.512-8.107-21.973-15.787-5.461-7.253-8.405-16.213-8.405-25.6 0-8.96 2.944-17.92 8.405-25.6 5.461-7.253 13.184-12.8 21.973-15.36h954.709c8.789 2.56 16.469 8.107 21.931 15.36 5.504 7.68 8.448 16.64 8.448 25.6 0 9.387-2.944 18.347-8.448 25.6-5.461 7.68-13.141 13.227-21.931 15.787zM466.688 468.907h-436.309c-8.789-2.56-16.512-8.107-21.973-15.36-5.461-7.68-8.405-16.64-8.405-25.6 0-9.387 2.944-18.347 8.405-25.6 5.461-7.68 13.184-13.227 21.973-15.787h436.309c8.789 2.56 16.512 8.107 21.973 15.787 5.461 7.253 8.405 16.213 8.405 25.6 0 8.96-2.944 17.92-8.405 25.6-5.461 7.253-13.184 12.8-21.973 15.36zM293.888 166.827h-263.509c-8.789-2.987-16.512-8.533-21.973-15.787s-8.405-16.64-8.405-25.6c0-9.387 2.944-18.347 8.405-25.6 5.461-7.68 13.184-12.8 21.973-15.787h263.509c8.832 2.987 16.512 8.107 21.973 15.787 5.461 7.253 8.405 16.213 8.405 25.6 0 8.96-2.944 18.347-8.405 25.6s-13.141 12.8-21.973 15.787zM1011.413 468.907c-3.371 3.84-7.467 6.827-12.117 8.96-4.608 2.133-9.6 2.987-14.677 2.987-5.035 0-10.027-0.853-14.677-2.987-4.608-2.133-8.704-5.12-12.075-8.96l-288.597-288-98.048 98.133c-3.669 3.84-8.107 6.827-12.971 8.96-4.907 2.133-10.197 3.413-15.531 3.413-5.376 0-10.667-0.853-15.573-2.987-4.907-2.56-9.344-5.547-12.928-9.387-3.968-3.84-7.168-8.107-9.387-13.227-2.219-4.693-3.456-9.813-3.584-15.36-0.213-5.547 0.853-10.667 3.115-15.787s5.632-9.387 9.856-12.8l126.549-126.293c7.765-7.68 17.835-12.373 28.501-13.227 5.419 0 10.709 1.28 15.616 3.413 4.907 2.56 9.301 5.547 12.928 9.813l317.056 316.587c6.485 8.107 9.685 18.347 9.045 29.013s-5.077 20.48-12.501 27.733z" />
<glyph unicode="&#xe927;" glyph-name="icon-list-save" d="M977.109 769.28h-946.816c-8.789-2.56-16.469-8.107-21.888-15.787-5.461-7.253-8.405-16.213-8.405-25.173 0-9.387 2.944-18.347 8.405-25.6 5.419-7.253 13.099-12.8 21.888-15.787h946.816c8.747 2.987 16.427 8.533 21.888 15.787 5.419 7.253 8.363 16.213 8.363 25.6 0 8.96-2.944 17.92-8.363 25.173-5.461 7.68-13.141 13.227-21.888 15.787zM460.629 468.054h-430.336c-8.789-2.56-16.469-8.107-21.888-15.787-5.461-7.253-8.405-16.213-8.405-25.173 0-9.387 2.944-18.347 8.405-25.6 5.419-7.68 13.099-12.8 21.888-15.787h430.336c8.789 2.987 16.469 8.107 21.888 15.787 5.461 7.253 8.405 16.213 8.405 25.6 0 8.96-2.944 17.92-8.405 25.173-5.419 7.68-13.099 13.227-21.888 15.787zM288.512 166.827h-258.219c-8.789-2.987-16.469-8.107-21.888-15.787-5.461-7.253-8.405-16.213-8.405-25.173 0-9.387 2.944-18.347 8.405-25.6 5.419-7.68 13.099-12.8 21.888-15.787h258.219c8.747 2.987 16.427 8.107 21.888 15.787 5.419 7.253 8.363 16.213 8.363 25.6 0 8.96-2.944 17.92-8.363 25.173-5.461 7.68-13.141 12.8-21.888 15.787zM1017.557 255.574c-1.664 3.84-4.181 7.68-7.339 11.093-6.485 5.973-15.104 9.813-24.107 9.813-4.395 0-8.789-0.853-12.885-2.56-4.181-1.707-7.851-4.267-10.752-7.68l-64.555-64.427v301.227c0.811 4.693 0.811 9.387 0 14.080-1.579 4.693-3.883 8.96-6.912 12.8-3.2 3.84-7.168 6.4-11.605 8.107-4.352 2.133-9.045 2.987-13.781 2.987s-9.429-0.853-13.781-2.987c-4.309-1.707-8.149-4.267-11.179-8.107-3.243-3.413-5.717-7.68-7.296-11.947-0.811-4.693-0.811-9.387 0-13.653v-301.227l-64.128 64.427c-2.987 3.413-6.656 5.973-10.795 7.68-4.096 1.707-8.448 2.56-12.885 2.56-4.48 0-8.917-0.853-13.056-2.56s-7.893-4.267-11.051-7.253c-3.072-3.413-5.547-7.253-7.296-11.093-1.749-4.267-2.645-8.96-2.603-13.653 0.043-4.267 0.896-8.533 2.603-12.8 1.749-4.267 4.224-7.68 7.296-11.093l122.667-123.307c2.987-2.987 6.656-5.973 10.752-7.68s8.491-2.56 12.928-2.56c4.395 0 8.789 0.853 12.885 2.56 4.224 1.707 8.064 4.693 11.179 7.68l122.24 123.307c3.157 2.987 5.675 6.827 7.339 11.093 1.707 4.267 2.603 8.96 2.56 13.227-1.365 4.267-3.584 8.533-6.443 11.947z" />
<glyph unicode="&#xe928;" glyph-name="icon-list-search" d="M984.32 772.267h-953.259c-8.789-2.56-16.469-8.107-21.931-15.787-5.461-7.253-8.405-16.213-8.405-25.6 0-8.96 2.944-17.92 8.405-25.173 5.461-7.68 13.141-13.227 21.931-15.787h953.259c8.96 2.56 16.64 8.107 21.76 15.787 5.547 7.253 8.533 16.213 8.533 25.173 0 9.387-2.987 18.347-8.533 25.6-5.12 7.68-12.8 13.227-21.76 15.787zM466.688 470.187h-435.627c-8.789-2.56-16.469-8.107-21.931-15.36-5.461-7.68-8.405-16.64-8.405-25.6 0-9.387 2.944-18.347 8.405-25.6 5.461-7.68 13.141-12.8 21.931-15.787h435.627c8.789 2.987 16.512 8.107 21.931 15.787 5.461 7.253 8.405 16.213 8.405 25.6 0 8.96-2.944 17.92-8.405 25.6-5.419 7.253-13.141 12.8-21.931 15.36zM292.011 165.12h-260.949c-8.96-2.987-16.853-8.107-22.443-15.787-5.589-7.253-8.619-16.64-8.619-25.6 0-9.387 3.029-18.773 8.619-26.027 5.589-7.68 13.483-12.8 22.443-15.787h263.125c10.837 0 21.291 4.693 28.971 12.373s11.989 17.92 11.989 29.013c0 10.667-4.309 20.907-11.989 28.587s-18.133 12.373-28.971 12.373l-2.176 0.853zM1015.040 131.84l-110.933 110.507c21.76 30.293 33.28 66.56 32.853 104.107-0.427 33.707-11.093 66.56-29.867 94.72-19.2 27.733-45.653 49.493-77.227 62.293-31.147 13.227-65.28 16.64-98.56 9.813-33.28-6.4-63.573-22.187-87.893-46.080-16.64-16.213-29.867-35.84-38.827-57.6s-13.227-45.227-12.8-68.693c0-42.24 15.36-83.2 43.093-114.773 2.56-2.987 5.547-5.547 9.387-7.253 3.413-1.707 7.253-2.56 11.52-2.56 3.84 0 7.68 0.427 11.093 2.133s6.827 4.267 8.96 7.253c4.267 5.12 6.827 11.947 6.827 18.773s-2.56 13.227-6.827 18.347c-20.053 22.187-30.293 51.627-29.44 81.493 1.28 29.867 13.227 58.027 33.707 79.36 20.907 21.333 49.067 34.133 78.507 35.84 15.787 1.28 32-1.28 46.933-6.827s28.16-14.080 39.253-25.6c19.2-17.92 32-41.813 35.84-67.84s-1.28-52.48-14.507-75.52c-13.227-22.613-33.707-40.107-58.453-49.92-24.32-9.387-51.2-10.667-76.373-2.987-5.547 1.707-11.093 1.28-16.64-0.853-5.12-1.707-9.387-5.547-12.373-10.24-2.56-3.84-4.267-8.107-4.693-12.373-0.853-4.693-0.853-8.96 0.427-13.653 0.853-4.267 3.413-8.533 6.4-11.52 3.413-3.413 7.68-5.973 11.947-6.827 15.787-4.267 32-6.4 47.787-6.827 36.267 0 71.253 11.52 100.693 32.427l110.933-110.933c5.12-5.12 12.373-8.107 19.627-8.96 3.84 0 7.68 0.853 11.093 2.56 3.413 1.28 6.827 3.413 9.387 6.4 5.12 5.12 8.107 12.373 8.107 19.627 0 4.267-0.853 8.107-2.133 11.947-1.707 3.84-3.84 7.253-6.827 10.24z" />
<glyph unicode="&#xe929;" glyph-name="icon-lock" d="M898.859 464.64c-1.323 26.027-12.629 50.773-31.573 68.693s-44.075 28.16-70.272 28.16h-30.592v130.987c-2.731 66.56-30.933 128.853-78.677 174.933-47.787 45.653-111.445 71.253-177.664 71.253s-129.877-25.6-177.621-71.253c-47.787-46.080-75.989-108.373-78.72-174.933v-130.987h-30.592c-13.056 0.427-26.027-2.133-38.101-7.253-12.075-4.693-23.040-12.373-32.171-21.76-9.131-8.96-16.299-20.053-21.077-32.427-4.736-11.947-6.997-25.173-6.571-37.973v-449.707c-0.171-12.8 2.261-25.6 7.083-37.547 4.864-11.947 12.075-22.613 21.205-32 9.131-8.96 20.011-16.213 31.957-20.907 11.947-5.12 24.747-7.253 37.675-7.253h534.997c8.917 0 17.493 3.413 23.765 9.813 6.315 6.4 9.856 14.933 9.856 23.893s-3.541 17.493-9.856 23.893c-6.272 5.973-14.848 9.813-23.765 9.813h-534.997c-4.053-0.427-8.149 0.427-11.947 1.707-3.797 1.707-7.211 3.84-10.112 6.827-2.859 2.987-5.12 6.4-6.613 10.24-1.451 3.413-2.133 7.68-1.92 11.52v449.707c-0.213 3.84 0.469 8.107 1.92 11.947 1.493 3.413 3.755 7.253 6.613 9.813 2.901 2.987 6.315 5.12 10.112 6.827 3.797 1.28 7.893 2.133 11.947 1.707h577.835c4.053 0.427 8.149-0.427 11.989-1.707s7.296-3.84 10.197-6.4c2.901-2.987 5.12-6.4 6.571-10.24s2.091-8.107 1.835-11.947v-342.613c0-8.533 3.541-17.493 9.856-23.467 6.315-6.4 14.848-9.813 23.808-9.813 8.917 0 17.451 3.413 23.765 9.813 6.315 5.973 9.856 14.933 9.856 23.467v345.173zM316.672 555.947v127.147c-0.171 24.747 4.565 49.493 13.995 72.533 9.387 23.467 23.296 44.373 40.832 61.867 17.536 17.92 38.4 32 61.397 41.387 22.997 9.813 47.659 14.507 72.619 14.933 25.216 0 50.304-4.693 73.728-14.080s44.715-23.467 62.72-40.96c18.005-17.92 32.341-38.827 42.112-62.293 9.813-23.040 14.933-48.213 15.061-73.387v-130.987l-382.464 3.84zM610.389 306.774c0.085 17.92-4.779 35.84-14.080 51.2-9.344 15.36-22.699 28.16-38.699 36.267-16 8.533-34.005 12.373-52.011 11.093s-35.371-7.253-50.133-17.493c-14.763-10.667-26.368-24.747-33.579-41.387s-9.728-34.56-7.253-52.48c2.432-17.92 9.771-34.987 21.163-49.067 11.435-13.653 26.453-24.32 43.477-30.293v-104.533c0-8.533 3.456-17.067 9.6-23.040 6.144-6.4 14.464-9.813 23.168-9.813s17.024 3.413 23.211 9.813c6.144 5.973 9.6 14.507 9.6 23.040v104.533c19.115 6.4 35.712 19.2 47.445 35.413 11.733 16.64 18.048 36.267 18.091 56.747zM512.043 273.92c-6.485 0-12.8 2.133-18.219 5.547-5.376 3.413-9.557 8.533-12.075 14.933-2.475 5.973-3.115 12.373-1.835 18.773 1.237 6.4 4.395 12.373 8.96 16.64 4.565 4.693 10.411 7.68 16.768 8.96s12.971 0.853 18.944-1.707c6.016-2.56 11.136-6.827 14.72-11.947 3.584-5.547 5.547-11.947 5.547-18.347-0.128-8.533-3.627-17.067-9.728-23.040-6.144-5.973-14.421-9.813-23.083-9.813z" />
<glyph unicode="&#xe92a;" glyph-name="icon-minus" d="M980.821 474.454h-937.643c-11.819-1.28-22.784-6.827-30.763-15.36-7.979-8.96-12.416-20.053-12.416-32s4.437-23.467 12.416-32.427c7.979-8.533 18.944-14.080 30.763-15.36h937.643c11.819 1.28 22.784 6.827 30.763 15.36 7.979 8.96 12.416 20.48 12.416 32.427s-4.437 23.040-12.416 32c-7.979 8.533-18.944 14.080-30.763 15.36z" />
<glyph unicode="&#xe92b;" glyph-name="icon-pause" d="M383.573 667.734c-12.373 0-24.32-5.12-32.853-14.080-8.96-8.533-14.080-20.48-14.080-32.853v-388.267c0-12.373 5.12-24.32 14.080-32.853 8.533-8.96 20.48-14.080 32.853-14.080s24.32 5.12 33.28 13.653c8.96 8.96 14.080 20.907 14.080 33.28v388.267c0 12.373-5.12 24.32-14.080 33.28-8.96 8.533-20.907 13.653-33.28 13.653zM639.573 667.734c-12.373 0-24.32-5.12-32.853-14.080-8.96-8.533-14.080-20.48-14.080-32.853v-388.267c1.28-11.52 6.4-22.613 15.36-30.72 8.533-7.68 20.053-11.947 32-11.947 11.52 0 23.040 4.267 31.573 11.947 8.96 8.107 14.080 19.2 15.36 30.72v388.267c0 12.373-5.12 24.32-14.080 33.28-8.96 8.533-20.907 13.653-33.28 13.653z" />
<glyph unicode="&#xe92c;" glyph-name="icon-plus" d="M977.493 473.174h-418.987v418.987c0 12.373-4.907 24.32-13.611 32.853-8.747 8.96-20.565 13.653-32.896 13.653s-24.149-4.693-32.896-13.653c-8.704-8.533-13.611-20.48-13.611-32.853v-418.987h-418.987c-12.331 0-24.149-4.693-32.896-13.653-8.704-8.533-13.611-20.48-13.611-32.853s4.907-24.32 13.611-32.853c8.747-8.96 20.565-13.653 32.896-13.653h418.987v-418.987c0-12.373 4.907-24.32 13.611-32.853 8.747-8.96 20.565-13.653 32.896-13.653s24.149 4.693 32.896 13.653c8.704 8.533 13.611 20.48 13.611 32.853v418.987h418.987c12.331 0 24.149 4.693 32.896 13.653 8.704 8.533 13.611 20.48 13.611 32.853s-4.907 24.32-13.611 32.853c-8.747 8.96-20.565 13.653-32.896 13.653z" />
<glyph unicode="&#xe92d;" glyph-name="icon-print" d="M986.453 333.654c-4.693 0.427-8.96-0.427-13.227-2.133-4.267-1.28-8.107-3.84-11.52-7.253-2.987-2.987-5.547-6.827-7.253-11.093s-2.133-8.96-2.133-13.653v-8.107c0.427-11.947-2.133-23.467-6.4-34.133s-10.667-20.48-19.2-28.587c-8.107-8.533-17.493-14.933-28.587-19.2-10.667-4.693-22.187-6.827-33.707-7.253h-24.747v93.44h16.213c8.107 0.427 15.787 3.413 21.76 8.533 5.973 5.547 10.24 12.8 11.947 20.48v2.56c0 3.84-0.853 8.107-2.56 11.947-1.707 3.413-4.267 6.827-7.253 9.813s-6.827 5.547-10.667 7.253c-4.267 2.133-8.533 2.987-13.227 2.56h-692.053c-8.107-0.427-15.787-3.413-21.76-8.96-5.973-5.12-10.24-12.373-11.52-20.053v-2.56c0-4.267 0.853-8.107 2.56-11.947 1.707-3.413 3.84-6.827 6.827-9.813s6.827-5.547 11.093-7.68c3.84-1.707 8.107-2.56 12.8-2.133h17.067v-93.44h-25.6c-11.52 0.427-23.040 2.56-33.707 7.253-10.667 4.267-20.48 10.667-28.587 19.2-8.107 8.107-14.933 17.92-19.2 28.587s-6.4 22.187-6.4 34.133v236.8c0 11.52 2.133 23.040 6.4 33.707 4.267 11.093 11.093 20.907 19.2 29.013s17.92 14.933 28.587 19.2c10.667 4.693 22.187 6.827 33.707 6.827h713.387c11.52 0 23.040-2.133 33.707-6.827 10.667-4.267 20.48-11.093 28.587-19.2 8.533-8.107 14.933-17.92 19.2-29.013 4.267-10.667 6.827-22.187 6.4-33.707v-39.253c-0.853-4.267-0.853-8.533 0-12.373 1.28-4.267 2.987-8.107 5.547-11.52 2.56-2.987 5.547-5.12 8.96-6.827 3.413-1.28 7.253-2.133 11.093-2.133 8.96 0.427 17.493 3.84 23.467 10.24 6.4 6.4 9.813 14.933 9.813 23.893v37.973c0.427 40.107-15.787 78.933-43.947 107.52s-66.987 44.8-107.093 44.8h-24.747v105.813c0 40.107-16.213 78.933-44.373 107.093-28.16 28.587-66.56 44.8-106.667 45.227h-360.96c-40.533-0.427-78.933-16.213-107.093-44.8-28.587-28.587-44.373-67.413-43.947-107.52v-105.813h-21.333c-40.107 0-78.507-16.213-107.093-44.8-28.16-28.587-43.947-67.413-43.947-107.52v-236.8c0-40.533 15.787-78.933 43.947-107.52 28.587-28.587 66.987-44.8 107.093-44.8h25.6v-131.413c0-24.32 9.813-47.787 26.88-65.28 17.493-17.493 40.533-27.307 65.28-27.733h477.867c24.747 0.427 47.787 10.24 65.28 27.733 17.067 17.493 26.88 40.96 27.307 65.28v131.413h25.173c40.107 0 78.933 16.213 107.093 44.8s43.947 66.987 43.947 107.52v8.107c0 8.96-3.413 17.493-9.813 23.893-5.973 6.4-14.507 10.24-23.467 10.24zM774.827 295.68v-292.267c-0.427-7.68-3.84-14.933-8.96-20.48-5.547-5.547-12.8-8.533-20.48-8.96h-476.587c-3.84 0-7.253 1.28-10.24 2.987-3.413 1.28-6.4 3.84-8.533 6.4-2.56 2.987-4.267 5.973-5.547 9.387-0.853 3.413-1.28 7.253-1.28 10.667v292.267h531.627zM241.493 676.267v105.813c0 11.947 2.56 23.467 6.827 34.133 4.693 11.093 11.52 20.907 19.627 29.013 8.533 8.533 18.347 14.933 29.44 19.2 11.093 4.693 22.613 6.827 34.56 6.4h360.107c22.613-1.707 43.52-11.52 59.307-28.16 15.787-16.213 24.747-37.973 25.173-60.587v-105.813h-535.040zM415.573 168.534h159.573c7.68 0 15.36 2.987 20.907 8.533s8.533 13.227 8.533 20.907c0 8.107-2.987 15.787-8.533 21.333s-13.227 8.533-20.907 8.533h-159.573c-3.84 0-7.68-0.853-11.093-2.133-3.84-1.707-6.827-3.84-9.813-6.827-2.56-2.56-4.693-5.973-6.4-9.387-1.28-3.413-2.133-7.253-1.707-11.52 0.427-7.253 3.413-14.507 8.96-20.053s12.373-8.533 20.053-9.387zM415.573 41.814h159.573c7.68 0 15.36 2.987 20.907 8.533s8.533 13.227 8.533 20.907c0 7.68-2.987 15.36-8.533 20.907s-13.227 8.533-20.907 8.533h-159.573c-3.84 0-7.68-0.427-11.093-2.133-3.84-1.28-6.827-3.84-9.813-6.4-2.56-2.56-4.693-5.973-6.4-9.813-1.28-3.413-2.133-7.253-1.707-11.093 0.427-7.68 3.413-14.933 8.96-20.053 5.547-5.547 12.373-8.96 20.053-9.387zM151.040 545.28c-7.68 0-15.36-3.413-20.907-8.96s-8.533-12.8-8.533-20.907c0-7.68 2.987-15.36 8.533-20.907s13.227-8.533 20.907-8.533h92.16c8.107 0 15.36 2.987 20.907 8.533s8.96 13.227 8.96 20.907c0 8.107-3.413 15.36-8.96 20.907s-12.8 8.96-20.907 8.96h-92.16z" />
<glyph unicode="&#xe92e;" glyph-name="icon-save" d="M690.645 938.667h-349.44c-144.128 0-234.539-101.547-234.539-264.96v-673.28c0-47.36 37.163-85.76 82.987-85.76 13.867 0 27.52 3.413 39.765 10.24l284.331 159.573 331.093-160.427c8.96-3.84 19.072-3.84 28.075 0s16.213 11.093 19.968 20.48c5.547 17.067-1.195 35.84-16.171 45.227l-328.917 159.147c-21.461 11.947-47.488 11.947-68.992 0l-284.8-159.147c-3.243-2.133-7.211-2.133-10.453 0-3.115 2.133-4.949 5.547-4.821 9.387v674.56c0.427 120.747 58.965 189.44 163.797 189.44h349.44c134.528 0 154.155-113.067 154.155-180.907v-30.72h-378.24c-9.6 0-18.688-4.267-25.259-11.947-6.571-7.253-10.027-16.64-9.685-26.88 0.469-19.627 15.829-35.413 34.944-35.84h376.96v-395.52c0-20.907 16.213-37.547 36.224-37.547 19.883 0 36.011 16.64 36.267 37.12v501.333c0 158.293-86.485 256.427-226.688 256.427z" />
<glyph unicode="&#xe92f;" glyph-name="icon-search" d="M1009.6-18.773l-287.787 288-9.856 10.24 8.576 11.093c55.595 71.68 84.736 160.427 82.475 251.307-2.347 103.68-44.203 202.24-117.035 276.053s-171.093 116.907-274.688 120.747c-53.419 0.853-106.496-8.96-156.075-29.013-49.621-19.627-94.805-49.067-132.992-86.613-38.4-37.547-68.821-82.773-89.387-132.267-20.608-49.493-30.933-102.827-30.464-156.587 0.384-99.413 37.077-194.56 103.083-268.8 3.285-3.413 7.424-6.827 12.032-8.533 4.608-2.133 9.6-2.987 14.635-2.987 4.608-0.427 9.259 0.427 13.568 2.133 4.352 1.707 8.192 4.267 11.307 7.68 6.101 7.68 9.429 17.067 9.429 26.88s-3.328 19.2-9.429 26.88c-55.040 62.293-83.712 143.36-79.872 226.133 2.432 82.773 35.84 161.28 93.568 220.587s135.595 95.147 218.24 99.84h17.195c41.344 0.427 82.347-7.68 120.576-23.467 38.272-15.36 73.045-38.4 102.357-67.84 46.336-45.227 78.208-103.253 91.52-166.4 13.312-63.573 7.424-129.28-16.811-189.44-24.277-60.16-65.877-111.36-119.467-148.053-53.632-36.267-116.821-55.893-181.589-55.893-30.72 0-61.269 4.693-90.624 13.653h-9.472c-5.504 0-11.008-1.28-15.872-3.84-4.821-2.56-8.875-6.4-11.605-11.093-7.168-11.947-9.6-26.027-6.869-39.68 1.28-5.547 4.096-10.667 8.107-14.507 4.053-3.84 9.131-6.827 14.635-7.68 36.523-9.813 73.984-15.36 111.701-17.067 88.235 0.427 173.952 29.867 243.968 83.627l11.136 8.533 298.069-297.813c7.552-6.827 16.981-11.093 27.093-12.373 5.12 0 10.197 1.28 14.848 3.413 4.693 2.133 8.832 5.12 12.203 8.96 3.669 3.413 6.571 7.68 8.576 12.373s3.029 9.813 3.029 14.933c0 4.693-1.024 9.813-3.029 14.507s-4.907 8.96-8.576 12.373h-0.427zM114.069 260.267v0z" />
<glyph unicode="&#xe930;" glyph-name="icon-send" d="M1014.613 490.24l-410.88 413.013c-4.267 4.693-10.24 7.68-16.64 8.96-5.973 0.853-12.373 0.427-18.347-2.133s-10.667-6.4-14.507-11.947c-3.413-5.12-5.547-11.52-5.547-17.493v-216.32h-6.4c-209.92-7.253-315.307-99.413-328.107-109.227-104.533-87.040-175.787-207.787-202.24-340.907-13.227-65.28-15.36-132.267-6.827-197.973l8.533-49.493c0.853-6.4 3.84-12.373 8.533-17.067s10.667-7.68 17.067-8.96h5.973c5.547 0 11.093 1.707 15.787 4.267 4.693 2.987 8.533 6.827 11.52 11.52l24.747 42.667c61.44 116.48 162.987 207.36 285.44 255.573 44.8 14.080 91.733 20.48 138.24 18.773h27.733v-223.573c0-6.4 2.133-12.8 5.547-17.92 3.413-5.547 8.533-9.813 14.507-11.947 5.973-2.56 12.373-2.987 18.773-1.707 5.973 1.28 11.947 4.267 16.213 8.96l410.88 416.853c5.973 5.973 9.387 14.507 9.387 23.040 0 4.267-0.853 8.533-2.56 12.373-1.28 3.84-3.84 7.68-6.827 10.667zM588.373 334.507c-20.907 3.413-42.24 4.693-64 4.693-54.187 0-108.373-9.387-159.573-27.733-116.907-43.947-216.747-124.587-285.013-229.12l-11.947-17.92v21.76c0 37.973 3.413 75.947 10.667 113.493 21.76 119.467 84.907 227.84 178.347 305.92 4.267 3.413 101.547 92.16 316.16 92.16h6.4c8.533 0.427 16.64 3.84 22.613 9.813s9.387 14.080 9.387 22.613v170.667l333.653-335.36-333.653-338.773v175.787c0 7.68-2.133 14.507-6.827 20.48s-11.093 9.813-18.347 11.52h2.133z" />
<glyph unicode="&#xe931;" glyph-name="icon-settings" d="M930.56 552.107h-23.467v6.4c-3.413 12.373-8.107 24.32-13.227 35.84l-7.68 18.347-2.133 5.12 16.64 16.64c8.96 8.533 15.787 18.773 20.48 30.293s6.827 23.467 6.827 35.84c-2.133 25.173-12.373 48.64-29.44 67.413l-45.227 45.653c-17.92 16.64-41.813 26.027-66.56 26.027-24.32 0-48.213-9.387-66.133-26.027l-17.067-17.067-5.547 2.56c-16.64 9.387-34.56 16.213-52.907 20.907h-6.827v25.173c-0.427 24.747-10.24 48.64-28.16 66.133-17.493 17.493-41.387 27.307-66.133 27.307h-64c-24.747-0.427-48.213-10.24-65.707-27.733s-27.307-40.96-27.733-65.707v-23.467h-6.4c-12.373-3.413-24.32-8.107-35.84-13.227l-18.347-7.68h-5.12l-16.64 16.64c-17.92 17.067-41.387 26.453-66.133 26.027-12.8 0-25.173-2.987-36.693-8.107s-22.187-12.373-30.72-21.76l-45.653-45.653c-8.96-8.533-15.787-19.2-20.48-30.293-4.693-11.52-6.827-23.893-6.827-36.267 1.707-24.747 11.52-48.213 27.733-66.987l12.373-11.947 4.267-4.267-2.56-5.547c-9.387-17.067-16.64-34.987-20.907-53.76v-6.827h-25.173c-24.747-0.427-48.213-10.24-65.707-27.733s-27.307-40.96-27.733-65.707v-64c0.427-24.747 10.24-48.213 27.733-65.707s40.96-27.307 65.707-27.733h23.467v-6.4c3.413-12.373 8.107-24.32 13.227-35.84l7.68-18.347v-5.12l-16.64-16.64c-16.64-17.92-26.027-41.813-26.027-66.133 0-24.747 9.387-48.64 26.027-66.56l49.493-46.507c17.92-17.067 41.813-26.453 66.56-26.027 24.747-0.427 48.213 8.96 66.133 26.027l17.067 17.067 5.547-2.56c16.64-9.387 34.56-16.213 52.907-20.907h6.827v-23.893c0-25.173 9.813-49.067 27.733-66.987 17.493-17.493 41.387-27.733 66.56-27.733h64c24.747 0.427 48.213 10.24 65.707 27.733s27.307 40.96 27.733 65.707v23.467h6.4c12.373 3.413 24.32 8.107 35.84 13.227l23.467 9.813 16.64-16.64c17.92-16.64 41.813-26.027 66.133-26.027 24.747 0 48.64 9.387 66.56 26.027l46.507 47.36c8.96 8.533 15.787 19.2 20.48 30.293 4.693 11.52 6.827 23.893 6.827 36.267-1.707 24.747-11.52 48.213-27.733 66.987l-12.373 11.947-4.267 4.267 2.56 5.547c9.387 16.64 16.213 34.56 20.907 52.907v6.827h23.893c25.173 0 49.067 9.813 66.987 27.733 17.493 17.493 27.733 41.387 27.733 66.56v64c0 12.373-2.133 24.747-6.827 35.84-4.693 11.52-11.52 21.76-20.053 30.72-8.96 8.533-19.2 15.36-30.72 20.053-11.093 4.693-23.467 6.827-35.84 6.827zM964.693 386.134c-0.427-8.96-4.267-17.067-10.667-23.467-6.4-5.973-14.507-9.813-23.467-10.24h-51.2c-4.693 0.427-9.813-1.28-13.653-4.267-3.84-2.56-6.4-6.827-7.68-11.52-8.96-32-22.187-62.72-39.253-91.307-3.413-5.547-5.12-12.373-4.693-18.773 0.853-6.827 3.413-12.8 7.68-17.92l29.867-29.44c5.12-7.253 7.68-15.787 7.68-24.747 0-8.533-2.56-17.067-7.68-24.32l-47.787-48.213c-6.4-5.973-14.933-8.96-23.467-8.96-8.96 0-17.92 2.987-25.173 8.107l-29.867 31.573c-2.56 2.56-5.12 4.267-8.533 5.973-2.987 1.28-6.4 1.707-9.813 1.707-6.4-0.427-12.8-2.133-18.773-5.12-28.587-16.64-58.88-29.44-90.453-38.827-6.4-1.707-12.373-5.547-16.64-11.093s-6.827-11.947-7.253-18.773v-42.667c-0.427-8.96-4.267-17.067-10.24-23.467-6.4-6.4-14.507-10.24-23.467-10.667h-64c-8.96 0.427-17.067 4.267-23.467 10.667-5.973 6.4-9.813 14.507-10.24 23.467v42.667c-0.427 6.827-2.987 13.227-6.827 18.773-4.267 5.12-10.24 8.96-16.64 11.093-32 8.96-62.72 22.187-91.307 39.253-4.693 2.133-9.813 3.413-14.933 3.413-8.107-0.427-16.213-2.987-23.040-7.68l-28.16-28.587c-6.4-5.973-14.507-9.813-23.040-11.093-4.693-0.427-9.387 0.427-14.080 2.56-4.267 1.707-8.107 4.693-11.093 8.533l-45.227 45.227c-5.12 7.253-7.68 15.787-7.68 24.747 0 8.533 2.56 17.067 7.68 24.32l30.72 30.72c4.267 5.12 6.827 11.52 7.253 18.347 0.427 6.4-1.28 13.227-4.693 18.773-16.64 28.587-29.44 58.88-38.827 90.453-1.707 6.4-5.547 12.373-11.093 16.64s-11.947 6.827-18.773 7.253h-42.667c-8.96 0.427-17.067 4.267-23.467 10.24-6.4 6.4-10.24 14.507-10.667 23.467v64c0.427 8.96 4.267 17.067 10.667 23.467 6.4 5.973 14.507 9.813 23.467 10.24h42.667c6.827 0.427 13.227 2.987 18.773 6.827 5.12 4.267 8.96 10.24 11.093 16.64 8.96 32 22.187 62.72 39.253 91.307 3.413 5.547 5.12 12.373 4.693 18.773-0.853 6.827-3.413 12.8-7.68 17.92l-29.867 29.44c-5.973 6.4-9.813 14.507-11.093 23.040 0 4.267 0.853 8.96 2.987 12.8 1.707 3.84 4.693 7.253 8.107 10.24l44.373 50.347c6.4 5.973 14.933 8.96 23.467 8.96 8.96 0 17.92-2.987 25.6-8.107l30.72-30.72c2.56-2.56 5.12-4.267 8.533-5.973 2.987-1.28 6.4-1.707 9.813-1.707 6.4 0.427 12.8 2.133 18.773 5.12 29.013 16.213 60.16 28.587 92.16 37.12 6.4 1.707 12.373 5.547 16.64 11.093s6.827 11.947 7.253 18.773v42.667c0.427 8.96 4.267 17.067 10.24 23.467 6.4 6.4 14.507 10.24 23.467 10.667h64c8.96-0.427 17.067-4.267 23.467-10.667 5.973-6.4 9.813-14.507 10.24-23.467v-46.933c0.427-6.827 2.987-13.227 6.827-18.773 4.267-5.12 10.24-8.96 16.64-11.093 32-8.96 62.72-22.187 91.307-39.253 5.547-2.987 11.947-4.267 18.347-4.693 3.413 0 6.827 0.427 9.813 1.707 3.413 1.707 5.973 3.413 8.533 5.973l29.44 29.867c6.4 5.973 14.507 9.813 23.040 11.093 4.267 0 8.96-0.853 12.8-2.987 3.84-1.707 7.253-4.693 10.24-8.107l48.64-46.933c5.12-6.827 8.107-15.36 8.107-24.32s-2.987-17.493-8.107-24.32l-30.72-31.147c-4.693-5.12-7.68-11.52-8.107-18.347-0.853-6.827 0.853-13.653 4.693-19.627 16.64-28.587 29.44-58.88 38.827-90.453 1.707-6.4 5.547-12.373 11.093-16.64s11.947-6.827 18.773-7.253h42.667c8.96-0.427 17.067-4.267 23.467-10.24 6.4-6.4 10.24-14.507 10.667-23.467v-63.147zM518.4 645.547c-43.52 0-86.613-12.8-122.88-37.12s-64.427-58.88-81.493-99.413c-16.64-40.107-20.907-84.907-12.373-127.573 8.533-43.093 29.44-82.347 60.587-113.067 30.72-31.147 69.973-52.053 113.067-60.587 42.667-8.533 87.467-4.267 127.573 12.373 40.533 17.067 75.093 45.227 99.413 81.493s37.12 79.36 37.12 122.88c-0.853 58.453-24.32 114.347-65.707 155.307-40.96 41.387-96.853 64.853-155.307 65.707zM518.4 261.547c-32 0-63.147 9.387-89.6 27.307-26.453 17.493-47.36 42.667-59.307 72.107-12.373 29.44-15.36 61.867-9.387 93.44 6.4 31.147 21.76 59.733 44.373 82.347s51.2 37.973 82.347 44.373c31.573 5.973 64 2.987 93.44-9.387 29.44-11.947 54.613-32.853 72.107-59.307 17.92-26.453 27.307-57.6 27.307-89.6-0.427-42.667-17.493-83.2-47.787-113.067s-70.827-46.507-113.493-46.507v-1.707z" />
<glyph unicode="&#xe932;" glyph-name="icon-share" d="M783.616 392.107c-36.395-0.427-72.192-8.96-104.747-25.173s-60.971-39.68-83.157-68.693l-7.211-8.96-211.584 123.733 4.224 10.667c6.357 19.2 8.96 39.253 7.595 59.733 0.256 11.093-1.323 22.187-4.651 32.853l-3.797 11.947 333.056 142.507 9.301 5.547 6.357-7.253c15.36-17.493 34.304-31.573 55.509-41.387 21.248-9.387 44.331-14.507 67.669-14.507 21.419 0 42.667 3.84 62.464 12.373 19.84 8.107 37.845 20.053 52.949 34.987 15.147 15.36 27.093 33.28 35.157 53.333 8.107 19.627 12.16 40.96 11.904 62.293 0 43.093-17.109 84.48-47.573 114.773-30.464 30.72-71.808 47.787-114.901 47.787-43.136 0-84.437-17.067-114.944-47.787-30.464-30.293-47.573-71.68-47.573-114.773-0.597-10.24 0.555-20.053 3.371-29.867l4.224-11.947-338.56-146.773-6.357 8.533c-18.389 24.32-41.984 43.947-69.077 58.027s-57.003 21.76-87.509 22.613c-25.344 0-50.432-5.12-73.813-14.933s-44.629-23.893-62.507-41.813c-17.877-17.92-32.043-39.253-41.685-62.72-9.685-23.467-14.592-48.64-14.549-73.813 0.555-51.2 20.992-99.84 56.96-136.107 35.968-35.84 84.608-56.747 135.595-57.6 52.992 1.28 103.424 23.040 140.501 61.013l7.637 7.253 214.144-126.293v-9.813c-4.864-20.053-7.723-40.96-8.491-61.44-1.323-32 3.755-63.573 14.976-93.44 11.264-29.44 28.373-56.747 50.389-79.787 21.973-23.040 48.427-40.96 77.653-53.76 29.269-12.373 60.715-18.773 92.501-18.773 31.829 0 63.275 6.4 92.544 18.773 29.227 12.8 55.637 30.72 77.653 53.76s39.125 50.347 50.347 79.787c11.221 29.867 16.341 61.44 14.976 93.44-0.256 30.72-6.613 61.013-18.688 89.6-12.075 28.16-29.611 54.187-51.627 75.52-22.016 21.76-48.085 38.4-76.672 49.92-28.629 11.52-59.179 17.067-89.984 16.64zM783.616-12.8c-33.493 0-66.219 9.813-94.080 28.587-27.819 18.773-49.536 45.227-62.336 75.947-12.8 31.147-16.171 64.853-9.643 97.707s22.656 63.147 46.336 87.040c23.68 23.467 53.845 39.68 86.699 46.080 32.811 6.4 66.859 3.413 97.792-9.387 30.933-13.227 57.387-34.56 75.989-62.72 18.603-27.733 28.501-60.587 28.501-93.867 0-44.8-17.835-87.893-49.579-119.893-31.744-31.573-74.795-49.493-119.68-49.493zM753.152 776.107c0.043 19.627 5.931 38.827 16.853 55.040 10.965 16.213 26.453 28.587 44.544 36.267 18.091 7.253 38.016 9.387 57.173 5.547 19.2-3.84 36.821-13.653 50.603-27.307 13.824-14.080 23.211-31.573 27.008-50.773 3.755-19.2 1.792-39.253-5.717-57.173s-20.224-33.28-36.48-44.373c-16.256-10.667-35.413-16.64-54.955-16.64-26.325 0-51.499 10.667-70.059 29.44-18.56 18.347-29.013 43.52-28.971 69.973zM324.821 483.414c-0.171-25.6-7.936-50.773-22.315-71.68-14.379-21.333-34.731-37.547-58.453-47.36-23.723-9.387-49.749-11.947-74.795-6.4-25.003 5.12-47.915 17.493-65.835 35.84-17.877 18.347-29.909 41.813-34.56 66.987-4.693 24.747-1.792 50.773 8.363 74.24 10.112 23.467 26.965 43.52 48.469 57.6 21.461 13.653 46.592 20.907 72.192 20.48 33.963-0.427 66.304-14.507 90.069-38.827s36.992-57.173 36.864-90.88z" />
<glyph unicode="&#xe933;" glyph-name="icon-sort-grid" d="M418.816 938.667h-372.309c-12.331 0-24.064-5.12-32.768-13.653-8.704-8.96-13.611-20.48-13.739-32.853v-372.48c0.128-12.373 5.035-23.893 13.739-32.853 8.704-8.533 20.437-13.653 32.768-13.653h372.309c12.288 0 24.021 5.12 32.725 13.653 8.704 8.96 13.653 20.48 13.739 32.853v372.48c0.853 5.12 0.512 10.667-0.981 15.36-1.451 5.12-4.053 9.813-7.552 13.653-4.693 5.547-10.496 9.813-17.067 12.8-6.528 2.987-13.653 4.693-20.864 4.693zM404.736 875.094v-341.333h-341.205v341.333h341.205zM604.757 473.174h372.309c12.288 0 24.064 5.12 32.725 13.653 8.704 8.96 13.653 20.48 13.739 32.853v372.48c0.853 5.12 0.512 10.667-0.939 15.36-1.493 5.12-4.053 9.813-7.552 13.653-4.693 5.547-10.539 9.813-17.067 12.8-6.571 2.987-13.696 4.693-20.907 4.693h-372.309c-12.288 0-24.064-5.12-32.768-13.653-8.704-8.96-13.611-20.48-13.739-32.853v-372.48c0.213-12.373 5.205-23.893 13.867-32.853 8.661-8.533 20.352-13.227 32.64-13.653zM623.531 532.054v341.333h341.163v-341.333h-341.163zM418.816 380.16h-372.309c-12.331 0-24.064-5.12-32.768-13.653-8.704-8.96-13.611-20.48-13.739-32.853v-372.48c0.128-12.373 5.035-23.893 13.739-32.853 8.704-8.533 20.437-13.653 32.768-13.653h372.309c12.288 0 24.021 5.12 32.725 13.653 8.704 8.96 13.653 20.48 13.739 32.853v372.48c0.853 5.12 0.512 10.667-0.981 15.36-1.451 5.12-4.053 9.813-7.552 13.653-4.693 5.547-10.496 9.813-17.067 12.8-6.528 2.987-13.653 4.693-20.864 4.693zM404.736 316.587v-341.333h-341.205v341.333h341.205zM977.067 380.16h-372.309c-12.288 0-24.064-5.12-32.768-13.653-8.704-8.96-13.611-20.48-13.739-32.853v-372.48c0.213-12.373 5.205-23.893 13.867-32.853 8.661-8.533 20.352-13.227 32.64-13.653h372.309c12.288 0 24.064 5.12 32.725 13.653 8.704 8.96 13.653 20.48 13.739 32.853v372.48c0.853 5.12 0.512 10.667-0.939 15.36-1.493 5.12-4.053 9.813-7.552 13.653-4.693 5.547-10.539 9.813-17.067 12.8-6.571 2.987-13.696 4.693-20.907 4.693zM962.987 316.587v-341.333h-341.163v341.333h341.163z" />
<glyph unicode="&#xe934;" glyph-name="icon-sort-list" d="M322.645 714.667h664.32c9.856 0 19.285 3.84 26.24 10.667 6.955 7.253 10.88 16.64 10.88 26.453s-3.925 19.2-10.88 26.453c-6.955 6.827-16.384 10.667-26.24 10.667h-664.32c-9.856 0-19.285-3.84-26.24-10.667-6.955-7.253-10.88-16.64-10.88-26.453s3.925-19.2 10.88-26.453c6.955-6.827 16.384-10.667 26.24-10.667zM157.099 512.854h-131.84c-3.328 0-6.656-0.427-9.771-1.707s-5.931-2.987-8.277-5.547c-2.389-2.133-4.224-5.12-5.461-8.107-1.195-2.987-1.792-6.4-1.664-9.813v-131.413c-0.128-3.413 0.469-6.827 1.664-9.813 1.237-2.987 3.072-5.973 5.461-8.107 2.347-2.56 5.163-4.267 8.277-5.547s6.443-1.707 9.771-1.707h131.84c3.328 0 6.656 0.427 9.771 1.707s5.931 2.987 8.277 5.547c2.389 2.133 4.224 5.12 5.461 8.107 1.195 2.987 1.792 6.4 1.664 9.813v130.987c-4.267 14.507-14.933 25.6-25.173 25.6zM45.739 375.894v85.333h85.333v-85.333h-85.333zM157.099 825.6h-131.84c-3.328 0-6.656-0.427-9.771-1.707s-5.931-2.987-8.277-5.547c-2.389-2.133-4.224-5.12-5.461-8.107-1.195-2.987-1.792-6.4-1.664-9.813v-131.84c-0.128-3.413 0.469-6.827 1.664-9.813 1.237-2.987 3.072-5.973 5.461-8.107 2.347-2.56 5.163-4.267 8.277-5.547s6.443-1.707 9.771-1.707h131.84c3.328 0 6.656 0.427 9.771 1.707s5.931 2.987 8.277 5.547c2.389 2.133 4.224 5.12 5.461 8.107 1.195 2.987 1.792 6.4 1.664 9.813v131.413c-4.267 14.507-14.933 25.6-25.173 25.6zM45.739 688.64v85.333h85.333v-85.333h-85.333zM157.099 212.48h-131.84c-3.499 0-6.955-0.427-10.197-1.707s-6.144-3.413-8.533-5.973c-2.389-2.56-4.224-5.547-5.333-8.96s-1.493-6.827-1.109-10.24v-132.267c-0.128-3.413 0.469-6.827 1.664-9.813 1.237-2.987 3.072-5.973 5.461-8.107 2.347-2.56 5.163-4.267 8.277-5.547s6.443-1.707 9.771-1.707h131.84c3.328 0 6.656 0.427 9.771 1.707s5.931 2.987 8.277 5.547c2.389 2.133 4.224 5.12 5.461 8.107 1.195 2.987 1.792 6.4 1.664 9.813v132.267c-4.267 15.787-14.933 26.88-25.173 26.88zM45.739 75.52v85.333h85.333v-85.333h-85.333zM986.965 458.667h-664.32c-9.856 0-19.285-3.84-26.24-10.667-6.955-7.253-10.88-16.64-10.88-26.453s3.925-19.2 10.88-26.453c6.955-6.827 16.384-10.667 26.24-10.667h664.32c9.856 0 19.285 3.84 26.24 10.667 6.955 7.253 10.88 16.64 10.88 26.453s-3.925 19.2-10.88 26.453c-6.955 6.827-16.384 10.667-26.24 10.667zM986.965 128.427h-664.32c-9.856 0-19.285-3.84-26.24-10.667-6.955-7.253-10.88-16.64-10.88-26.453s3.925-19.2 10.88-26.453c6.955-6.827 16.384-10.667 26.24-10.667h664.32c9.856 0 19.285 3.84 26.24 10.667 6.955 7.253 10.88 16.64 10.88 26.453s-3.925 19.2-10.88 26.453c-6.955 6.827-16.384 10.667-26.24 10.667z" />
<glyph unicode="&#xe935;" glyph-name="icon-star-empty" d="M1022.251 545.28c-1.835 5.547-5.163 10.24-9.685 14.080s-10.027 6.4-15.872 7.253l-315.221 46.080-141.824 285.013c-2.944 5.12-7.125 8.96-12.16 11.947-4.992 2.987-10.624 4.267-16.384 4.267s-11.435-1.28-16.427-4.267c-4.992-2.987-9.173-6.827-12.117-11.947l-141.867-285.013-313.515-46.080c-5.845-0.853-11.349-3.413-15.829-7.253-4.523-3.84-7.893-8.533-9.728-14.080-1.877-5.973-2.133-11.947-0.683-17.92 1.408-5.547 4.48-11.093 8.789-14.933l227.456-222.293-53.675-313.173c-0.939-5.973-0.256-11.947 2.005-17.493 2.219-5.547 5.973-10.24 10.795-13.653 5.333-4.267 11.947-6.4 18.731-6.4 5.205 0 10.325 1.28 14.933 3.84l110.72 58.88c3.755 1.707 7.040 4.267 9.728 7.68s4.693 6.827 5.931 11.093c1.28 3.84 1.707 8.107 1.323 12.373s-1.579 8.107-3.541 11.947c-1.963 3.84-4.651 6.827-7.851 9.813-3.243 2.56-6.997 4.693-11.008 5.973s-8.235 1.707-12.416 1.28c-4.181-0.427-8.235-1.707-11.989-3.84l-55.339-28.587 47.275 266.24c1.024 5.12 0.725 10.667-0.811 15.36-1.579 5.12-4.395 9.387-8.149 12.8l-193.365 189.013 267.051 38.4c5.205 0.853 10.112 2.987 14.336 5.973 4.267 2.987 7.68 6.827 9.941 11.52l119.296 241.92 119.68-241.92c2.176-4.693 5.504-8.533 9.685-11.52s9.045-5.12 14.165-5.973l267.093-38.4-193.408-189.013c-3.669-3.413-6.4-7.68-7.936-12.8-1.579-4.693-1.92-10.24-0.981-15.36l47.275-265.813-240.683 125.44c-7.424 3.84-16 4.693-23.979 2.133-7.936-2.56-14.635-8.107-18.603-15.36-2.005-3.413-3.243-7.68-3.627-11.947-0.427-3.84 0-8.107 1.237-11.947 1.237-4.267 3.243-7.68 5.931-11.093 2.645-2.987 5.931-5.547 9.643-7.68l298.197-155.733c5.291-2.987 11.221-4.267 17.195-3.413 5.931 0.427 11.648 2.56 16.469 5.973 4.864 3.413 8.661 8.107 10.923 13.653s2.901 11.52 1.835 17.493l-53.675 312.747 227.456 222.293c4.096 3.84 6.955 9.387 8.235 14.933 1.28 5.973 0.939 11.947-0.981 17.493z" />
<glyph unicode="&#xe936;" glyph-name="icon-star-filled" d="M341.632 2.134l-112.341-58.453c-4.309-2.133-9.131-3.413-14.037-3.413-6.4 0-12.672 2.133-17.877 5.547-4.565 3.413-8.149 8.107-10.325 13.227s-2.859 11.093-2.005 16.64l54.059 314.88-228.48 223.147c-4.437 3.413-7.723 8.533-9.387 14.080s-1.664 11.093 0 16.64c1.664 5.547 4.821 10.24 9.088 14.080 4.309 3.84 9.557 5.973 15.189 6.827l316.117 45.653 142.933 286.293c2.773 4.693 6.741 8.533 11.52 11.52 4.779 2.56 10.197 4.267 15.744 4.267 5.504 0 10.923-1.707 15.701-4.267 4.779-2.987 8.747-6.827 11.52-11.52l142.933-286.293 316.117-45.653c5.632-0.853 10.88-2.987 15.189-6.827s7.424-8.533 9.088-14.080c1.877-5.12 2.133-11.093 0.768-16.64s-4.309-10.24-8.448-14.080l-228.48-223.147 52.352-313.6c1.067-5.547 0.512-11.52-1.621-16.64-2.091-5.12-5.675-9.813-10.283-13.227-4.651-3.413-10.155-5.12-15.872-5.547s-11.435 0.853-16.469 3.413l-297.813 156.16z" />
<glyph unicode="&#xe937;" glyph-name="icon-substitute" d="M841.813 802.56c-24.32 21.333-50.432 40.96-78.080 58.027-77.269 49.067-166.997 75.093-258.56 74.667-70.357 0.427-139.989-14.507-203.904-43.947-63.872-29.44-120.448-72.96-165.589-126.72-84.523-93.867-132.651-215.040-135.68-341.333 0.128-8.96 3.627-17.493 9.856-23.467 6.187-6.4 14.592-10.24 23.424-10.24 5.035 0 10.027 0.853 14.677 2.56s8.917 4.693 12.416 8.107c3.541 3.84 6.315 7.68 8.107 12.373s2.603 9.813 2.347 14.933c2.56 108.8 44.032 213.333 116.907 294.4 39.552 45.227 88.32 81.493 143.061 106.667 54.741 24.747 114.219 37.973 174.379 37.973 77.995 0 154.368-22.613 220.16-64.427 26.752-17.493 52.565-36.267 77.227-56.32l18.347-15.36 8.96-7.68h-93.44c-8.96 0.427-17.664-2.987-24.32-8.96-7.296-6.4-11.989-15.36-13.227-24.747-0.256-8.96 2.944-17.92 8.96-24.747 6.357-7.253 15.147-11.947 24.747-13.227l168.533-4.267c5.12-0.427 10.325 0 15.232 1.28 4.949 1.707 9.472 4.267 13.355 7.68 3.029 2.987 5.376 6.827 6.912 10.667 1.536 4.267 2.219 8.533 2.048 12.8v8.533l-4.267 165.547c0.384 4.267-0.427 8.96-2.261 13.227-1.877 3.84-4.779 7.68-8.405 10.24-7.339 7.253-17.323 11.52-27.733 11.52-4.437 0.427-8.832-0.427-12.843-2.56-3.968-1.707-7.339-4.693-9.771-8.533-3.499-3.413-6.229-7.68-8.064-11.947-1.835-4.693-2.731-9.813-2.603-14.507v-66.133l-6.827 5.547-14.080 12.373zM182.187 51.2c24.277-21.76 50.432-40.96 78.080-58.027 77.355-49.067 167.040-74.667 258.56-74.667 70.357-0.853 139.989 14.507 203.904 43.947 63.872 29.44 120.448 72.533 165.589 126.72 84.864 94.293 133.035 216.32 135.68 343.040-0.128 8.96-3.627 17.067-9.856 23.467-6.187 6.4-14.592 9.813-23.424 10.24-5.035 0-10.027-0.853-14.677-2.56-4.693-1.707-8.917-4.693-12.416-8.107-3.541-3.84-6.315-8.107-8.107-12.8s-2.603-9.387-2.347-14.507c-1.536-110.507-43.051-216.747-116.907-298.667-39.552-45.227-88.32-81.92-143.061-106.667-54.784-24.747-114.219-37.973-174.379-37.973-78.251 0.853-154.667 24.32-220.16 66.987-26.752 17.493-52.565 36.267-77.227 56.32l-19.627 16.64-8.96 7.68h94.72c8.96-0.427 17.664 2.987 24.32 8.96 7.253 6.4 11.989 14.933 13.227 24.747 0.256 8.96-2.944 17.92-8.96 24.747-6.357 7.253-15.147 11.947-24.747 13.227l-168.533 4.267c-5.12 0.853-10.368 0.427-15.36-1.28-4.949-1.28-9.472-4.267-13.227-7.68-3.115-3.413-5.461-7.253-6.955-11.52-1.451-4.267-2.005-8.96-1.579-13.227v-8.533l4.267-165.547c-0.384-4.693 0.427-8.96 2.261-13.227 1.877-3.84 4.779-7.68 8.405-10.24 7.339-6.827 16.939-10.24 26.88-10.24 4.395-0.427 8.832 0.427 12.843 2.56 3.968 1.707 7.339 4.693 9.771 8.533 3.499 3.413 6.229 7.68 8.064 11.947 1.835 4.693 2.731 9.387 2.603 14.507v65.28l6.827-5.973 14.507-12.373z" />
<glyph unicode="&#xe938;" glyph-name="icon-substitute-bestmatch" d="M841.813 802.56c-24.32 21.333-50.347 40.96-78.080 58.027-77.227 49.067-166.827 75.093-258.56 74.667-70.4 0.427-139.947-14.507-203.947-43.947s-120.32-72.96-165.547-126.72c-84.48-93.867-132.693-215.040-135.68-341.333 0-8.96 3.84-17.493 9.813-23.467 6.4-6.4 14.507-10.24 23.467-10.24 5.12 0 9.813 0.853 14.507 2.56s8.96 4.693 12.8 8.107c3.413 3.84 5.973 7.68 7.68 12.373 2.133 4.693 2.987 9.813 2.56 14.933 2.56 108.8 43.947 213.333 116.907 294.4 39.68 45.227 88.32 81.493 142.933 106.667 55.040 24.747 114.347 37.973 174.507 37.973 78.080 0 154.453-22.613 220.16-64.427 26.88-17.493 52.48-36.267 77.227-56.32l18.347-15.36 8.96-7.68h-93.44c-8.96 0.427-17.493-2.987-24.32-8.96-7.253-6.4-11.947-15.36-13.227-24.747-0.427-8.96 2.987-17.92 8.96-24.747 6.4-7.253 15.36-11.947 24.747-13.227l168.533-4.267c5.12-0.427 10.24 0 15.36 1.28 4.693 1.707 9.387 4.267 13.227 7.68 2.987 2.987 5.547 6.827 6.827 10.667 1.707 4.267 2.133 8.533 2.133 12.8v8.533l-4.267 165.547c0.427 4.267-0.427 8.96-2.133 13.227-2.133 3.84-4.693 7.68-8.533 10.24-7.253 7.253-17.493 11.52-27.733 11.52-4.267 0.427-8.96-0.427-12.8-2.56-3.84-1.707-7.253-4.693-9.813-8.533-3.413-3.413-6.4-7.68-8.107-11.947-1.707-4.693-2.56-9.813-2.56-14.507v-66.133l-6.827 5.547-14.080 12.373zM182.187 51.2c24.32-21.76 50.347-40.96 78.080-58.027 77.227-49.067 166.827-74.667 258.56-74.667 70.4-0.853 139.947 14.507 203.947 43.947s120.32 72.533 165.547 126.72c84.907 94.293 133.12 216.32 135.68 343.040 0 8.96-3.84 17.067-9.813 23.467-6.4 6.4-14.507 9.813-23.467 10.24-5.12 0-9.813-0.853-14.507-2.56s-8.96-4.693-12.8-8.107c-3.413-3.84-5.973-8.107-7.68-12.8-2.133-4.693-2.987-9.387-2.56-14.507-1.707-110.507-43.093-216.747-116.907-298.667-39.68-45.227-88.32-81.92-142.933-106.667-55.040-24.747-114.347-37.973-174.507-37.973-78.080 0.853-154.453 24.32-220.16 66.987-26.88 17.493-52.48 36.267-77.227 56.32l-19.627 16.64-8.96 7.68h94.72c8.96-0.427 17.493 2.987 24.32 8.96 7.253 6.4 11.947 14.933 13.227 24.747 0.427 8.96-2.987 17.92-8.96 24.747-6.4 7.253-15.36 11.947-24.747 13.227l-168.533 4.267c-5.12 0.853-10.24 0.427-15.36-1.28-5.12-1.28-9.387-4.267-13.227-7.68-2.987-3.413-5.547-7.253-6.827-11.52-1.707-4.267-2.133-8.96-1.707-13.227v-8.533l4.267-165.547c-0.427-4.693 0.427-8.96 2.133-13.227 2.133-3.84 4.693-7.68 8.533-10.24 7.253-6.827 17.067-10.24 26.88-10.24 4.267-0.427 8.96 0.427 12.8 2.56 3.84 1.707 7.253 4.693 9.813 8.533 3.413 3.413 6.4 7.68 8.107 11.947 1.707 4.693 2.56 9.387 2.56 14.507v65.28l6.827-5.973 14.507-12.373zM645.973 373.334h-267.947c-8.533-0.853-16.64-5.12-22.187-11.52-5.973-6.4-8.96-14.507-8.96-23.467 0-8.533 2.987-16.64 8.96-23.040 5.547-6.4 13.653-10.667 22.187-11.52h267.947c8.533 0.853 16.64 5.12 22.187 11.52 5.973 6.4 8.96 14.507 8.96 23.040 0 8.96-2.987 17.067-8.96 23.467-5.547 6.4-13.653 10.667-22.187 11.52zM378.027 480.427h267.947c8.533 0.853 16.64 5.12 22.187 11.52 5.973 6.4 8.96 14.507 8.96 23.040 0 8.96-2.987 17.067-8.96 23.467-5.547 6.4-13.653 10.667-22.187 11.52h-267.947c-8.533-0.853-16.64-5.12-22.187-11.52-5.973-6.4-8.96-14.507-8.96-23.467 0-8.533 2.987-16.64 8.96-23.040 5.547-6.4 13.653-10.667 22.187-11.52z" />
</font>
</defs>
</svg>
